<?xml version="1.0" standalone="no"?>
<!DOCTYPE svg PUBLIC "-//W3C//DTD SVG 1.1//EN" "http://www.w3.org/Graphics/SVG/1.1/DTD/svg11.dtd" >
<svg xmlns="http://www.w3.org/2000/svg">
<metadata>Generated by IcoMoon</metadata>
<defs>
<font id="icomoon" horiz-adv-x="1024">
<font-face units-per-em="1024" ascent="960" descent="-64" />
<missing-glyph horiz-adv-x="1024" />
<glyph unicode="&#x20;" horiz-adv-x="512" d="" />
<glyph unicode="&#xe900;" glyph-name="a-9KFun1" d="M335.36-17.92h304.64c15.36 0 23.040-7.68 23.040-23.040s-7.68-23.040-23.040-23.040h-304.64c-15.36 0-23.040 7.68-23.040 23.040s7.68 23.040 23.040 23.040zM496.64 960c-230.4 0-417.28-186.88-417.28-419.84s64-256 166.4-332.8l46.080-120.32c12.8-35.84 48.64-58.88 92.16-58.88h232.96c40.96 0 79.36 23.040 92.16 58.88l46.080 120.32c104.96 79.36 166.4 202.24 166.4 332.8-5.12 232.96-192 419.84-424.96 419.84zM678.4 407.040h-122.88v-245.76c0-33.28-25.6-58.88-58.88-58.88s-58.88 25.6-58.88 58.88v245.76h-122.88c-33.28 0-58.88 25.6-58.88 58.88s25.6 58.88 58.88 58.88h363.52c33.28 0 58.88-25.6 58.88-58.88s-25.6-58.88-58.88-58.88z" />
<glyph unicode="&#xe901;" glyph-name="a-Accountsettings" d="M1006.080 514.56l-189.44 327.68c-23.040 40.96-66.56 66.56-115.2 66.56h-378.88c-48.64 0-92.16-25.6-115.2-66.56l-189.44-327.68c-23.040-40.96-23.040-92.16 0-133.12l189.44-327.68c23.040-40.96 66.56-66.56 115.2-66.56h378.88c48.64 0 92.16 25.6 115.2 66.56l189.44 327.68c23.040 40.96 23.040 92.16 0 133.12zM512 176.64c-145.92 0-266.24 120.32-266.24 266.24s120.32 266.24 266.24 266.24 266.24-120.32 266.24-266.24-120.32-266.24-266.24-266.24zM512 309.76c74.24 0 133.12 58.88 133.12 133.12s-58.88 133.12-133.12 133.12-133.12-58.88-133.12-133.12 58.88-133.12 133.12-133.12z" />
<glyph unicode="&#xe902;" glyph-name="a-BGgames" horiz-adv-x="1026" d="M954.958 959.962h-529.881c-38.397 0-66.555-33.278-63.995-71.675v-158.708h327.656c43.517 0 79.354-35.837 81.914-81.914v-378.852h191.986c38.397 0 66.555 33.278 63.995 71.675v547.799c-5.12 38.397-35.837 71.675-71.675 71.675zM885.843 734.699c-12.799-15.359-33.278-25.598-53.756-25.598-43.517 0-79.354 38.397-81.914 84.474 0 46.077 33.278 84.474 76.794 84.474s79.354-38.397 81.914-84.474c0-23.038-7.679-43.517-20.478-58.876zM640.101 678.383h-570.837c-40.957 0-71.675-33.278-69.115-76.794v-588.756c0-43.517 35.837-76.794 76.794-76.794h570.837c40.957 0 71.675 33.278 69.115 76.794v588.756c0 43.517-35.837 76.794-76.794 76.794zM501.872 588.79c46.077 0 87.034-40.957 87.034-89.593s-35.837-89.593-81.914-89.593c-46.077 0-87.034 40.957-87.034 89.593s35.837 89.593 81.914 89.593zM174.216 588.79c46.077 0 87.034-40.957 87.034-89.593s-35.837-89.593-81.914-89.593c-46.077 0-87.034 40.957-87.034 89.593s35.837 89.593 81.914 89.593zM194.694 38.43c-46.077 0-87.034 40.957-87.034 89.593s35.837 89.593 81.914 89.593 87.034-40.957 87.034-89.593-35.837-89.593-81.914-89.593zM358.522 217.617c-46.077 0-87.034 40.957-87.034 89.593s35.837 89.593 81.914 89.593c46.077 0 87.034-40.957 87.034-89.593s-35.837-89.593-81.914-89.593zM522.35 38.43c-46.077 0-87.034 40.957-87.034 89.593s35.837 89.593 81.914 89.593c46.077 0 87.034-40.957 87.034-89.593s-35.837-89.593-81.914-89.593z" />
<glyph unicode="&#xe903;" glyph-name="Lobby-close" d="M102.4 908.8h819.2c42.415 0 76.8-34.385 76.8-76.8s-34.385-76.8-76.8-76.8h-819.2c-42.415 0-76.8 34.385-76.8 76.8s34.385 76.8 76.8 76.8zM25.6 448c0 42.415 34.385 76.8 76.8 76.8h563.2c0 0 0 0 0 0v-153.6c0 0 0 0 0 0h-563.2c-42.415 0-76.8 34.385-76.8 76.8zM102.4 140.8h819.2c42.415 0 76.8-34.385 76.8-76.8s-34.385-76.8-76.8-76.8h-819.2c-42.415 0-76.8 34.385-76.8 76.8s34.385 76.8 76.8 76.8zM955.942 615.649c16.553 14.483 42.458 2.729 42.458-19.266v-245.567c0-21.994-25.905-33.749-42.458-19.266l-140.324 122.784c-11.656 10.199-11.656 28.333 0 38.532l140.324 122.784z" />
<glyph unicode="&#xe904;" glyph-name="a-MyGameBets" d="M179.2 832v-76.8c0-28.277 22.923-51.2 51.2-51.2h691.2c28.277 0 51.2 22.923 51.2 51.2v76.8c0 28.277-22.923 51.2-51.2 51.2h-691.2c-28.277 0-51.2-22.923-51.2-51.2zM179.2 601.6v-76.8c0-28.277 22.923-51.2 51.2-51.2h424.496l51.213 70.655q23.010 31.745 61.931 31.745t61.931-31.745l51.213-70.655h40.416c28.277 0 51.2 22.923 51.2 51.2v76.8c0 28.277-22.923 51.2-51.2 51.2h-691.2c-28.277 0-51.2-22.923-51.2-51.2zM537.776 192q19.831-18.538 51.105-18.538h51.177v-160.662h-537.658c-28.277 0-51.2 22.923-51.2 51.2v76.8c0 28.277 22.923 51.2 51.2 51.2h435.376zM617.784 422.4l-90.834-125.317q-18.794-25.928-15.162-53.883h-409.388c-28.277 0-51.2 22.923-51.2 51.2v76.8c0 28.277 22.923 51.2 51.2 51.2h515.384zM817.915 473.6l-29.44 40.607c-5.103 7.067-12.779 10.599-20.458 10.593 7.672-0.005 15.343-3.536 20.458-10.593l29.44-40.607zM967.635 267.035l-179.159 247.172c-10.238 14.124-30.713 14.124-40.951 0l-179.159-247.172c-12.654-17.458-0.615-42.372 20.475-42.372h102.377v-211.862h153.565v211.862h102.377c21.091 0 33.13 24.914 20.475 42.372z" />
<glyph unicode="&#xe905;" glyph-name="aside-all" d="M0 576v281.6c0 56.554 45.846 102.4 102.4 102.4v0h281.6c56.554 0 102.4-45.846 102.4-102.4v0-281.6c0-56.554-45.846-102.4-102.4-102.4h-281.6c-56.554 0-102.4 45.846-102.4 102.4v0zM537.6 576v281.6c0 56.554 45.846 102.4 102.4 102.4v0h281.6c56.554 0 102.4-45.846 102.4-102.4v0-281.6c0-56.554-45.846-102.4-102.4-102.4h-281.6c-56.554 0-102.4 45.846-102.4 102.4v0zM0 38.4v281.6c0 56.554 45.846 102.4 102.4 102.4v0h281.6c56.554 0 102.4-45.846 102.4-102.4v0-281.6c0-56.554-45.846-102.4-102.4-102.4v0h-281.6c-56.554 0-102.4 45.846-102.4 102.4v0zM537.6 38.4v281.6c0 56.554 45.846 102.4 102.4 102.4v0h281.6c56.554 0 102.4-45.846 102.4-102.4v0-281.6c0-56.554-45.846-102.4-102.4-102.4v0h-281.6c-56.554 0-102.4 45.846-102.4 102.4v0z" />
<glyph unicode="&#xe906;" glyph-name="aside-Slots" d="M624.151 624.188c-109.745-18.837-212.093 7.013-316.131 23.879-73.888 11.952-100.326-12.080-101.145-78.674-1.177-91.113-1.177-90.063-103.858-89.756-37.546 0-52.211 11.21-51.699 45.684 1.689 130.527 1.536 261.028 0 391.683-0.333 32.094 11.133 46.58 48.5 42.229 13.795-1.612 27.922-0.256 42.076-0.256 58.737 0 59.761 0 64.803-50.803 2.687-27.155 14.972-19.707 31.813-10.289 61.936 34.935 126.074 63.6 203.161 61.527 65.007-1.792 117.167-30.917 170.529-57.79 64.803-32.401 130.629-33.604 197.121-6.424 27.922 11.517 55.026 25.517 76.269 45.684 23.546 22.548 43.765 24.058 65.289-0.896 4.197-4.914 9.265-9.546 14.819-13.129 31.301-19.579 29.279-37.494 9.751-67.362-79.289-122.132-128.94-255.935-181.125-388.509-19.861-50.47-33.835-102.579-54.361-152.768-46.631-113.635-36.701-227.398-2.175-340.598 10.596-35.063-2.38-41.513-37.034-41.359-149.978 0.614-299.956 0.896-449.78 0-34.346-0.282-48.474 10.314-46.631 41.359 8.574 145.883 49.651 281.784 152.998 399.002 26.254 29.616 57.552 54.067 92.662 72.16l1.778 0.833c62.448 31.813 143.426 113.482 172.193 174.701l0.179-0.128z" />
<glyph unicode="&#xe907;" glyph-name="a-VisittheHelpCenter" d="M512 960c-281.6 0-512-230.4-512-512s230.4-512 512-512 512 230.4 512 512-230.4 512-512 512zM570.88 171.52c-10.24-10.24-23.040-12.8-35.84-12.8s-25.6 5.12-38.4 12.8c-10.24 10.24-15.36 23.040-15.36 38.4s5.12 28.16 15.36 35.84c10.24 10.24 23.040 15.36 38.4 15.36s28.16-5.12 35.84-15.36 15.36-23.040 15.36-35.84-5.12-28.16-15.36-38.4zM701.44 496.64c-7.68-15.36-17.92-28.16-28.16-38.4s-30.72-28.16-58.88-53.76c-7.68-7.68-15.36-12.8-20.48-20.48-5.12-5.12-7.68-10.24-10.24-15.36 0-5.12-5.12-10.24-5.12-12.8 0-5.12-2.56-12.8-5.12-23.040-5.12-23.040-17.92-35.84-40.96-35.84s-23.040 5.12-30.72 12.8c-7.68 7.68-12.8 20.48-12.8 35.84s2.56 35.84 10.24 51.2c5.12 15.36 15.36 28.16 23.040 38.4 10.24 10.24 23.040 23.040 40.96 38.4 15.36 12.8 25.6 23.040 33.28 28.16s12.8 15.36 17.92 23.040c5.12 7.68 7.68 17.92 7.68 25.6 0 17.92-7.68 33.28-20.48 46.080s-30.72 20.48-53.76 20.48-43.52-7.68-56.32-20.48c-12.8-12.8-23.040-30.72-30.72-56.32s-23.040-38.4-46.080-38.4-23.040 5.12-33.28 12.8c-7.68 10.24-12.8 20.48-12.8 30.72 0 23.040 7.68 43.52 20.48 66.56 15.36 23.040 35.84 40.96 61.44 56.32 28.16 15.36 58.88 23.040 94.72 23.040s64-5.12 89.6-17.92c25.6-12.8 46.080-28.16 58.88-51.2 15.36-20.48 20.48-46.080 20.48-69.12s-5.12-38.4-12.8-51.2z" />
<glyph unicode="&#xe908;" glyph-name="Baixe" d="M512 45.235l0.051 36.582-0.077-0.051 0.026-36.531zM768 960h-512c-40.388-0.015-73.125-32.751-73.139-73.138v-877.723c0.015-40.388 32.751-73.125 73.138-73.139h512.001c40.388 0.015 73.125 32.751 73.139 73.138v877.723c-0.015 40.388-32.751 73.125-73.138 73.139h-0.001zM512 8.678c-40.376 0.044-73.096 32.763-73.139 73.135v0.004c0.044 40.376 32.763 73.096 73.135 73.139h0.004c40.376-0.044 73.096-32.763 73.139-73.135v-0.004c-0.044-40.376-32.763-73.096-73.135-73.139h-0.004zM731.443 228.582h-438.861v621.696h438.861v-621.67z" />
<glyph unicode="&#xe909;" glyph-name="bar-deposit" d="M102.4-64c-56.554 0-102.4 45.846-102.4 102.4v0 640c0 56.554 45.846 102.4 102.4 102.4v0h716.8c113.108 0 204.8-91.692 204.8-204.8v0-25.6h-256c-113.108 0-204.8-91.692-204.8-204.8s91.692-204.8 204.8-204.8v0h256c0-113.108-91.692-204.8-204.8-204.8h-716.8zM153.6 832h742.4c0 56.554-45.846 102.4-102.4 102.4h-537.6c-56.554 0-102.4-45.846-102.4-102.4v0zM614.4 345.6c0 84.831 68.769 153.6 153.6 153.6v0h256v-307.2h-256c-84.831 0-153.6 68.769-153.6 153.6v0z" />
<glyph unicode="&#xe90a;" glyph-name="bar-dshare" horiz-adv-x="1026" d="M823.204 324.773c-63.519 0-119.415-30.489-154.986-78.763l-188.016 116.875c5.082 22.867 10.163 43.193 10.163 68.6s0 38.111-7.622 55.897l213.423 132.119c33.030-27.948 78.763-45.734 124.497-45.734 106.712 0 193.097 86.386 193.097 193.097s-86.386 193.097-193.097 193.097-193.097-86.386-193.097-193.097 2.541-40.652 10.163-58.437l-200.72-124.497c-45.734 58.437-114.334 94.008-193.097 94.008-134.66-2.541-243.912-114.334-243.912-248.994s109.252-246.453 246.453-246.453 139.741 33.030 185.475 83.845l200.72-124.497v-12.704c0-106.712 86.386-193.097 193.097-193.097s193.097 86.386 193.097 193.097-86.386 193.097-193.097 193.097z" />
<glyph unicode="&#xe90b;" glyph-name="bar-home" d="M0 38.4c0-56.554 45.846-102.4 102.4-102.4v0h256v204.8c0 84.831 68.769 153.6 153.6 153.6s153.6-68.769 153.6-153.6v0-204.8h256c56.554 0 102.4 45.846 102.4 102.4v0 462.797c-0.002 32.256-14.918 61.027-38.228 79.795l-0.197 0.154-409.6 327.68c-17.36 13.982-39.679 22.444-63.974 22.444s-46.615-8.461-64.172-22.597l0.198 0.154-409.6-327.68c-23.507-18.922-38.423-47.693-38.426-79.948v0-462.797zM512 243.2c-56.554 0-102.4-45.846-102.4-102.4v0-204.8h204.8v204.8c0 56.554-45.846 102.4-102.4 102.4v0z" />
<glyph unicode="&#xe90c;" glyph-name="bar-home1" d="M453.658 934.272l-397.005-163.712q-4.659-1.92-8.832-4.71-4.173-2.765-7.68-6.323-3.533-3.533-6.272-7.68-2.739-4.173-4.582-8.781-1.818-4.608-2.714-9.498-0.87-4.915-0.768-9.907 0.128-4.966 1.229-9.856t3.174-9.498l189.645-424.627 233.805 654.592zM503.834 899.61l-251.878-734.31q-0.819-2.355-1.382-4.813-0.589-2.458-0.922-4.941t-0.435-5.018q-0.077-2.509 0.077-5.018t0.563-4.992q0.384-2.483 1.024-4.915t1.536-4.787q0.87-2.355 1.971-4.608 1.101-2.278 2.432-4.403 1.331-2.15 2.842-4.147 1.536-1.997 3.251-3.84t3.584-3.507q1.894-1.664 3.942-3.149 2.048-1.459 4.198-2.739 2.176-1.28 4.48-2.304 2.278-1.050 4.659-1.869l394.752-135.552q4.787-1.638 9.779-2.304 4.992-0.691 10.035-0.384 5.018 0.307 9.907 1.587 4.864 1.28 9.395 3.507t8.55 5.274q3.994 3.072 7.347 6.835 3.328 3.789 5.888 8.141 2.509 4.352 4.147 9.139l251.904 734.285q0.794 2.381 1.382 4.838 0.563 2.432 0.922 4.941 0.333 2.483 0.41 4.992 0.102 2.509-0.051 5.018-0.179 2.534-0.563 5.018-0.41 2.483-1.050 4.915t-1.536 4.787q-0.87 2.355-1.971 4.608t-2.432 4.403q-1.306 2.15-2.842 4.147t-3.226 3.84q-1.715 1.843-3.61 3.507t-3.917 3.123q-2.048 1.485-4.224 2.739-2.176 1.28-4.454 2.304-2.304 1.050-4.685 1.869l-394.752 135.578q-4.762 1.638-9.779 2.304-4.992 0.691-10.035 0.384-5.018-0.333-9.907-1.613-4.864-1.28-9.395-3.507-4.531-2.202-8.525-5.274-4.019-3.046-7.347-6.835-3.328-3.763-5.888-8.141-2.534-4.352-4.173-9.114zM537.114 567.424c10.606 5.962 23.281 9.475 36.775 9.475 29.654 0 55.346-16.959 67.908-41.707l0.2-0.433 3.2-6.323 6.528 2.79c8.893 3.942 19.265 6.237 30.174 6.237 32.246 0 59.808-20.053 70.895-48.369l0.178-0.517c7.654-19.507 7.347-41.472-0.819-61.030-8.269-19.536-23.367-34.834-42.232-43.162l-0.52-0.205-105.395-44.902c-18.688-7.962-39.936-0.205-49.101 17.92l-51.686 102.298c-5.352 10.578-8.487 23.060-8.487 36.274 0 30.71 16.93 57.466 41.966 71.443l0.415 0.213z" />
<glyph unicode="&#xe90d;" glyph-name="bar-me" d="M512 448c141.389 0 256 114.611 256 256s-114.586 256-256 256c-141.363 0-256-114.611-256-256s114.637-256 256-256zM36.864 297.421c52.801 66.951 118.087 121.525 192.669 160.834l3.273 1.572c17.050 8.858 37.478 6.144 53.402-4.608 63.291-43.16 141.449-68.915 225.622-68.915 0.060 0 0.12 0 0.18 0h-0.009c80.819 0 159.488 24.166 225.818 68.941 15.923 10.752 36.352 13.44 53.402 4.608 77.868-40.886 143.163-95.469 195.003-161.163l0.965-1.269c11.348-14.358 18.204-32.722 18.204-52.688 0-19.746-6.705-37.926-17.963-52.386l0.143 0.191c-113.050-144.717-288.282-230.912-475.546-230.912s-362.496 86.195-475.546 230.912c-11.122 14.272-17.833 32.458-17.833 52.211 0 19.958 6.85 38.317 18.328 52.852l-0.137-0.18z" />
<glyph unicode="&#xe90e;" glyph-name="bar-Promot" d="M127.969 38.375c0-56.306 46.069-102.375 102.375-102.375h255.938v486.283h-358.314v-383.907zM537.47-64h255.938c56.306 0 102.375 46.069 102.375 102.375v383.907h-358.314v-486.283zM0 627.033v-102.375c0-28.153 23.034-51.188 51.188-51.188h435.095v204.751h-435.095c-28.153 0-51.188-23.034-51.188-51.188zM972.565 678.221h-435.095v-204.751h435.095c28.153 0 51.188 23.034 51.188 51.188v102.375c0 28.153-23.034 51.188-51.188 51.188zM209.869 708.934c5.119 0 7.678-5.119 12.797-5.119h580.98c5.119 0 7.678 5.119 12.797 5.119 79.341 43.51 63.985 179.157 0 225.226-81.9 56.306-171.479 2.559-235.463-74.222-5.119-7.678-10.238-12.797-15.356-20.475-17.916-23.034-35.831-46.069-46.069-63.985-12.797 17.916-28.153 40.95-46.069 63.985-5.119 7.678-10.238 12.797-15.356 20.475-76.781 79.341-166.36 133.088-245.701 76.781-66.544-46.069-84.46-181.716 0-225.226zM634.727 813.868c53.747 63.985 99.816 84.46 133.088 61.425 15.356-10.238 23.034-28.153 23.034-56.306 0-20.475-2.559-35.831-15.356-40.95-23.034-12.797-63.985-20.475-120.291-23.034h-66.544c12.797 15.356 25.594 35.831 43.51 56.306zM255.938 872.734c35.831 23.034 79.341 5.119 133.088-61.425 17.916-20.475 33.272-40.95 43.51-56.306h-63.985c-58.866 0-99.816 10.238-122.85 23.034-10.238 5.119-15.356 17.916-15.356 40.95 0 25.594 10.238 46.069 25.594 56.306z" />
<glyph unicode="&#xe90f;" glyph-name="bg-fullscreen" d="M983.040 232.96c-22.622 0-40.96-18.338-40.96-40.96v0-173.594h-174.080c-22.317-0.574-40.189-18.801-40.189-41.203s17.872-40.629 40.136-41.202l0.053-0.001h173.594c45.512 0 82.406 36.895 82.406 82.406v0 173.594c0 22.622-18.338 40.96-40.96 40.96v0zM941.594 960h-173.594c-22.317-0.574-40.189-18.801-40.189-41.203s17.872-40.629 40.136-41.202l0.053-0.001h173.594v-173.594c0.574-22.317 18.801-40.189 41.203-40.189s40.629 17.872 41.202 40.136l0.001 0.053v173.568c0 0.008 0 0.017 0 0.026 0 45.512-36.895 82.406-82.406 82.406v0zM256 18.406h-173.568l-0.051 173.594c-0.805 22.129-18.938 39.764-41.19 39.764s-40.386-17.634-41.188-39.69l-0.002-0.073v-173.594c0-45.512 36.895-82.406 82.406-82.406h173.594c22.317 0.574 40.189 18.801 40.189 41.203s-17.872 40.629-40.136 41.202l-0.053 0.001zM40.96 663.040c22.622 0 40.96 18.338 40.96 40.96v0 173.568l174.080 0.026c22.317 0.574 40.189 18.801 40.189 41.203s-17.872 40.629-40.136 41.202l-0.053 0.001h-173.568c-45.517 0-82.417-36.891-82.432-82.405v-173.595c0-22.622 18.338-40.96 40.96-40.96v0zM301.824 740.582h420.301q82.432 0 82.432-82.432v-420.301q0-82.432-82.432-82.432h-420.301q-82.406 0-82.406 82.432v420.326q0 82.406 82.432 82.406z" />
<glyph unicode="&#xe910;" glyph-name="Bingo" d="M153.6 755.2c0-28.277 22.923-51.2 51.2-51.2s51.2 22.923 51.2 51.2v0c0 28.277-22.923 51.2-51.2 51.2s-51.2-22.923-51.2-51.2v0zM460.8 448c0-28.277 22.923-51.2 51.2-51.2s51.2 22.923 51.2 51.2v0c0 28.277-22.923 51.2-51.2 51.2s-51.2-22.923-51.2-51.2v0zM921.6 960h-819.2c-56.32 0-102.4-46.080-102.4-102.4v-819.2c0-56.32 46.080-102.4 102.4-102.4h819.2c56.32 0 102.4 46.080 102.4 102.4v819.2c0 56.32-46.080 102.4-102.4 102.4zM307.2 48.64c0-5.12-5.12-10.24-10.24-10.24h-184.32c-5.12 0-10.24 5.12-10.24 10.24v184.32c0 5.12 5.12 10.24 10.24 10.24h184.32c5.12 0 10.24-5.12 10.24-10.24v-184.32zM307.2 355.84c0-5.12-5.12-10.24-10.24-10.24h-184.32c-5.12 0-10.24 5.12-10.24 10.24v184.32c0 5.12 5.12 10.24 10.24 10.24h184.32c5.12 0 10.24-5.12 10.24-10.24v-184.32zM307.2 663.040c0-5.12-5.12-10.24-10.24-10.24h-184.32c-5.12 0-10.24 5.12-10.24 10.24v184.32c0 5.12 5.12 10.24 10.24 10.24h184.32c5.12 0 10.24-5.12 10.24-10.24v-184.32zM614.4 48.64c0-5.12-5.12-10.24-10.24-10.24h-184.32c-5.12 0-10.24 5.12-10.24 10.24v184.32c0 5.12 5.12 10.24 10.24 10.24h184.32c5.12 0 10.24-5.12 10.24-10.24v-184.32zM614.4 355.84c0-5.12-5.12-10.24-10.24-10.24h-184.32c-5.12 0-10.24 5.12-10.24 10.24v184.32c0 5.12 5.12 10.24 10.24 10.24h184.32c5.12 0 10.24-5.12 10.24-10.24v-184.32zM614.4 663.040c0-5.12-5.12-10.24-10.24-10.24h-184.32c-5.12 0-10.24 5.12-10.24 10.24v184.32c0 5.12 5.12 10.24 10.24 10.24h184.32c5.12 0 10.24-5.12 10.24-10.24v-184.32zM921.6 48.64c0-5.12-5.12-10.24-10.24-10.24h-184.32c-5.12 0-10.24 5.12-10.24 10.24v184.32c0 5.12 5.12 10.24 10.24 10.24h184.32c5.12 0 10.24-5.12 10.24-10.24v-184.32zM921.6 355.84c0-5.12-5.12-10.24-10.24-10.24h-184.32c-5.12 0-10.24 5.12-10.24 10.24v184.32c0 5.12 5.12 10.24 10.24 10.24h184.32c5.12 0 10.24-5.12 10.24-10.24v-184.32zM921.6 663.040c0-5.12-5.12-10.24-10.24-10.24h-184.32c-5.12 0-10.24 5.12-10.24 10.24v184.32c0 5.12 5.12 10.24 10.24 10.24h184.32c5.12 0 10.24-5.12 10.24-10.24v-184.32zM768 140.8c0-28.277 22.923-51.2 51.2-51.2s51.2 22.923 51.2 51.2v0c0 28.277-22.923 51.2-51.2 51.2s-51.2-22.923-51.2-51.2v0z" />
<glyph unicode="&#xe911;" glyph-name="broadcast" d="M325.143 110.207c-7.885-1.178-15.923-1.792-24.141-1.792h-150.527c-83.071 0.026-150.476 61.977-150.476 138.367v402.429c0 76.39 67.379 138.316 150.501 138.316h150.501c8.243 0 16.281-0.614 24.141-1.792l170.059 156.389c44.595 41.011 113.33 6.912 113.33-56.217v-875.769c0-63.129-68.735-97.279-113.33-56.268l-170.085 156.338zM842.899 781.51c6.319 6.998 15.424 11.377 25.551 11.377 10.152 0 19.276-4.4 25.569-11.397l0.028-0.031c80.255-86.604 129.945-206.232 129.945-338.25 0-134.809-51.788-256.638-134.988-343.601-14.336-14.976-37.222-14.617-51.123 0.794-6.346 7.193-10.22 16.698-10.22 27.109 0 10.8 4.169 20.626 10.986 27.956l-0.023-0.025c69.759 72.959 113.049 174.872 113.049 287.742 0 110.591-41.548 210.686-108.825 283.262-6.559 7.249-10.573 16.908-10.573 27.504 0 10.623 4.034 20.304 10.654 27.595l-0.030-0.034zM689.223 678.42c11.136 17.843 33.613 22.605 50.176 10.624 73.446-53.017 121.881-143.333 121.881-245.835 0-105.65-51.456-198.296-128.665-250.622-16.896-11.443-39.219-5.965-49.868 12.237-10.624 18.201-5.555 42.24 11.366 53.683 57.062 38.656 94.847 106.93 94.847 184.703 0 75.468-35.584 142.002-89.855 181.195-16.589 11.981-20.992 36.147-9.882 54.016z" />
<glyph unicode="&#xe912;" glyph-name="close" d="M610.732 448.044l312.692 312.693c27.271 27.271 27.273 71.485 0.006 98.759-27.272 27.278-71.495 27.281-98.77 0.006l-312.693-312.693-312.669 312.669c-27.243 27.243-71.41 27.256-98.669 0.028-27.281-27.25-27.294-71.459-0.029-98.725l312.666-312.674-312.688-312.688c-27.271-27.271-27.273-71.485-0.006-98.759 27.272-27.278 71.495-27.281 98.77-0.006l312.686 312.686 312.722-312.731c27.253-27.253 71.437-27.259 98.697-0.012 27.268 27.255 27.273 71.457 0.011 98.719l-312.727 312.727z" />
<glyph unicode="&#xe913;" glyph-name="Copy" d="M146.286 594.286v-438.857q0-7.168 1.463-14.263 1.316-7.095 4.096-13.751 2.779-6.583 6.802-12.654 3.95-5.924 9.070-11.044t11.044-9.070q5.998-4.023 12.654-6.802t13.75-4.17q7.096-1.39 14.264-1.39h438.857q7.168 0 14.263 1.464 7.094 1.316 13.75 4.096 6.583 2.779 12.654 6.802 5.925 3.95 11.045 9.070t9.070 11.044q4.022 5.998 6.802 12.654t4.169 13.75q1.39 7.096 1.39 14.264v438.857q0 7.168-1.463 14.263-1.317 7.094-4.096 13.75-2.78 6.583-6.803 12.654-3.95 5.925-9.070 11.045t-11.044 9.070q-5.998 4.022-12.654 6.802t-13.75 4.169-14.263 1.39h-438.857q-7.168 0-14.263-1.463-7.095-1.317-13.751-4.096-6.583-2.78-12.654-6.803-5.924-3.95-11.044-9.070t-9.070-11.044q-4.023-5.998-6.802-12.654t-4.17-13.75q-1.39-7.095-1.39-14.263zM280.43 561.006q-2.707 0-5.413-0.512-2.633-0.512-5.12-1.61-2.56-1.023-4.9-2.56-2.195-1.462-4.17-3.437-1.974-1.902-3.437-4.17-1.536-2.34-2.56-4.827-1.097-2.56-1.61-5.193-0.511-2.706-0.511-5.412 0-2.78 0.512-5.486 0.512-2.633 1.609-5.12 1.024-2.56 2.56-4.9 1.463-2.195 3.437-4.17 1.902-1.975 4.17-3.438 2.34-1.536 4.827-2.56 2.56-1.097 5.193-1.609 2.706-0.512 5.413-0.512h316.855q2.706 0 5.412 0.512 2.633 0.512 5.193 1.61 2.56 1.023 4.828 2.56 2.194 1.462 4.169 3.437 1.975 1.902 3.438 4.17 1.536 2.34 2.633 4.827 1.024 2.56 1.536 5.193 0.585 2.706 0.585 5.486 0 2.706-0.585 5.412-0.512 2.633-1.536 5.12-1.097 2.56-2.633 4.9-1.463 2.195-3.438 4.17-1.902 1.975-4.17 3.438-2.267 1.536-4.827 2.56-2.56 1.097-5.193 1.609-2.706 0.512-5.412 0.512h-316.855zM280.43 402.651q-2.707 0-5.413-0.512-2.633-0.585-5.12-1.609-2.56-1.024-4.9-2.56-2.195-1.463-4.17-3.437-1.974-1.975-3.437-4.243-1.536-2.267-2.56-4.827-1.097-2.487-1.61-5.12-0.511-2.78-0.511-5.486t0.512-5.412 1.609-5.194q1.024-2.56 2.56-4.827 1.463-2.267 3.437-4.242 1.902-1.902 4.17-3.438 2.34-1.463 4.827-2.56 2.56-1.024 5.193-1.61 2.706-0.511 5.413-0.511h316.855q2.706 0 5.412 0.512 2.633 0.585 5.193 1.609t4.828 2.56q2.194 1.463 4.169 3.438t3.438 4.242q1.536 2.267 2.633 4.827 1.024 2.487 1.536 5.12 0.585 2.78 0.585 5.486t-0.585 5.413q-0.512 2.706-1.536 5.193-1.097 2.56-2.633 4.827-1.463 2.268-3.438 4.243-1.902 1.901-4.17 3.437-2.267 1.463-4.827 2.56-2.56 1.024-5.193 1.61-2.706 0.511-5.412 0.511h-316.855zM280.43 244.224q-2.707 0-5.413-0.512-2.633-0.512-5.12-1.61-2.56-1.023-4.9-2.56-2.195-1.462-4.17-3.437-1.974-1.902-3.437-4.169-1.536-2.34-2.56-4.827-1.097-2.56-1.61-5.194-0.511-2.706-0.511-5.485 0-2.707 0.512-5.413 0.512-2.633 1.609-5.12 1.024-2.56 2.56-4.9 1.463-2.195 3.437-4.17 1.902-1.974 4.17-3.437 2.34-1.536 4.827-2.56 2.56-1.097 5.193-1.61 2.706-0.511 5.413-0.511h316.855q2.706 0 5.412 0.512 2.633 0.512 5.193 1.609 2.56 1.024 4.828 2.56 2.194 1.463 4.169 3.437 1.975 1.902 3.438 4.17 1.536 2.34 2.633 4.827 1.024 2.56 1.536 5.193 0.585 2.706 0.585 5.413 0 2.78-0.585 5.485-0.512 2.634-1.536 5.12-1.097 2.56-2.633 4.901-1.463 2.194-3.438 4.17-1.902 1.974-4.17 3.437-2.267 1.536-4.827 2.56-2.56 1.097-5.193 1.609-2.706 0.512-5.412 0.512h-316.855zM292.571 740.571h438.859q7.168 0 14.262-1.462 7.095-1.317 13.751-4.096 6.583-2.78 12.654-6.803 5.925-3.95 11.045-9.070t9.070-11.044q4.022-5.998 6.802-12.654t4.169-13.75 1.39-14.263v-438.859q7.167 0 14.262 1.463 7.095 1.317 13.751 4.096 6.583 2.78 12.654 6.803 5.924 3.95 11.044 9.070t9.070 11.044q4.023 5.998 6.802 12.654t4.17 13.75 1.39 14.263v438.858q0 7.168-1.464 14.263-1.316 7.095-4.096 13.751-2.779 6.583-6.802 12.654-3.95 5.924-9.070 11.044t-11.044 9.070q-5.998 4.023-12.654 6.802t-13.75 4.17q-7.096 1.39-14.264 1.39h-438.858q-7.168 0-14.263-1.464-7.094-1.316-13.75-4.096-6.583-2.779-12.654-6.802-5.925-3.95-11.045-9.070t-9.070-11.044q-4.022-5.998-6.802-12.654t-4.169-13.75q-1.39-7.096-1.39-14.264z" />
<glyph unicode="&#xe914;" glyph-name="Crash" d="M1008.339 917.434c-3.227 13.428-13.603 23.804-26.784 26.981l-0.248 0.050c-197.485 45.384-412.889-8.601-566.423-162.135-21.107-21.162-40.674-43.887-58.502-67.977l-1.166-1.649c-5.12-6.988-12.466-11.775-20.862-13.874-80.172-19.864-157.425-61.767-221.598-125.914-28.014-27.984-52.617-59.373-73.14-93.495l-1.221-2.189c-17.534-29.616 12.543-64.506 44.796-52.603 50.939 18.789 105.974 28.055 162.673 28.106-0.768-4.864-1.92-9.599-2.585-14.437 41.696-48.375 82.359-92.159 124.556-134.411l-0.024 0.024c42.226-42.173 86.011-82.837 131.238-121.875l3.15-2.658c4.864 0.64 9.599 1.792 14.463 2.56 0-56.724-9.266-111.759-28.132-162.673-11.903-32.253 22.987-62.304 52.603-44.796 36.305 21.774 67.692 46.393 95.68 74.408l0.004 0.004c59.629 59.291 103.585 134.283 125.146 218.256l0.717 3.291c2.099 8.37 6.937 15.717 13.899 20.836 25.737 18.955 48.456 38.524 69.6 59.668v0c153.534 153.534 207.519 368.963 162.135 566.448l0.051 0.051zM760.939 523.334c-22.218-22.227-52.917-35.976-86.827-35.976s-64.609 13.748-86.827 35.975v0c-22.235 22.219-35.988 52.923-35.988 86.84s13.754 64.62 35.988 86.839l0.001 0.001c22.218 22.227 52.917 35.976 86.827 35.976s64.609-13.748 86.827-35.975v0c22.235-22.219 35.988-52.923 35.988-86.84s-13.754-64.62-35.988-86.839l-0.001-0.001zM158.091 256.787c-37.219-37.219-195.053-267.853-150.104-312.802s275.583 112.885 312.802 150.104c37.219 37.244 30.973 103.798-13.951 148.747-44.949 44.949-111.503 51.195-148.722 13.951z" />
<glyph unicode="&#xe915;" glyph-name="customerservice" d="M953.572 587.786h2.998c37.715 0 68.281-31.412 68.281-70.151v-93.594c0-38.714-30.566-70.125-68.281-70.151h-17.115c-47.169 0-85.421 39.277-85.421 87.727 0 1.922 0.077 3.869 0.205 5.816h-0.128v23.418h-0.077c0 193.774-152.959 350.832-341.608 350.832-188.675 0-341.608-157.058-341.608-350.832 0-176.607 127.030-322.725 292.339-347.245 16.705 16.449 38.944 25.621 62.080 25.621h76.864c49.526 0 89.674-41.25 89.674-92.083 0-50.884-40.149-92.108-89.674-92.108h-76.864c-31.782 0.141-59.619 16.898-75.287 42.027l-0.219 0.376c-184.012 26.006-332.948 164.898-378.426 346.451h-3.023c-37.715 0-68.281 31.437-68.281 70.151v93.594c0 38.739 30.566 70.151 68.281 70.151h2.998c50.576 201.767 228.9 350.858 441.147 350.858s390.571-149.090 441.147-350.858zM341.608 412.383c0-32.283 25.493-58.468 56.956-58.468 31.437 0 56.93 26.185 56.93 58.468v116.961c0 32.283-25.493 58.468-56.93 58.468-31.463 0-56.956-26.159-56.956-58.468v-116.961zM569.381 412.383c0-32.283 25.468-58.468 56.905-58.468 31.463 0 56.956 26.185 56.956 58.468v116.961c0 32.283-25.493 58.468-56.956 58.468-31.437 0-56.93-26.159-56.93-58.468v-116.961z" />
<glyph unicode="&#xe916;" glyph-name="redeemCode" d="M25.6 89.6v113.852c0 24.553 17.936 44.709 39.566 56.329 40.936 21.994 68.557 63.651 68.557 111.419s-27.62 89.425-68.557 111.419c-21.629 11.621-39.566 31.776-39.566 56.329v113.852c0 56.554 45.846 102.4 102.4 102.4h768c56.554 0 102.4-45.846 102.4-102.4v-113.885c0-24.544-17.926-44.695-39.543-56.32-40.912-22-68.512-63.644-68.512-111.395s27.601-89.395 68.512-111.395c21.617-11.624 39.543-31.775 39.543-56.319v-113.885c0-56.554-45.846-102.4-102.4-102.4h-768c-56.554 0-102.4 45.846-102.4 102.4zM294.4 550.4c-21.208 0-38.4-17.192-38.4-38.4v-281.6c0-21.208 17.192-38.4 38.4-38.4s38.4 17.192 38.4 38.4v281.6c0 21.208-17.192 38.4-38.4 38.4zM524.8 550.4c-21.208 0-38.4-17.192-38.4-38.4v-281.6c0-21.208 17.192-38.4 38.4-38.4s38.4 17.192 38.4 38.4v281.6c0 21.208-17.192 38.4-38.4 38.4zM729.6 550.4c-21.208 0-38.4-17.192-38.4-38.4v-281.6c0-21.208 17.192-38.4 38.4-38.4s38.4 17.192 38.4 38.4v281.6c0 21.208-17.192 38.4-38.4 38.4zM489.855 806.392h392.983l-11.846 31.98c-19.644 53.033-78.56 80.099-131.593 60.455l-249.544-92.435z" />
<glyph unicode="&#xe917;" glyph-name="Fishing" d="M966.989 956.621c-42.598-4.813-65.997-10.214-121.011-27.802-111.795-35.994-246.016-90.394-310.016-125.798-7.168-3.994-21.376-11.802-31.59-17.203-33.587-18.176-87.808-53.197-109.798-70.989-68.378-55.398-136.986-138.010-178.176-214.81-12.621-23.398-26.803-65.997-32.205-96.205-4.019-22.4-6.016-46.797-3.814-48.794 1.792-1.792 77.21 24.806 93.184 32.794 8.422 4.198 20.019 11.008 25.83 14.797 11.597 7.808 12.186 5.018 0.998-3.994-15.616-12.39-75.597-42.803-108.211-54.605-13.005-4.787-65.792-34.202-86.195-48-16.794-11.392-38.605-32.589-52.198-50.586-12.211-16.205-33.792-56.218-31.411-58.419 0.614-0.768 14.592 4.019 30.822 10.598 59.981 24.013 107.776 37.632 151.398 43.418 28.8 3.584 27.187 3.584 21.786-0.205-2.406-1.613-4.403-4.403-4.403-5.99 0-8.013 17.818-33.792 44.006-64 40.806-46.592 107.802-92.8 162.995-112.205 49.613-17.613 82.202-20.813 161.024-16 68.582 4.198 88.781 4.403 100.173 0.384 11.008-3.994 15.411-7.987 31.795-29.978 34.611-46.413 31.411-43.622 68.813-60.621 18.202-8.192 33.587-14.592 33.997-14.182 1.024 0.998-14.003 59.392-21.606 83.994-10.189 33.997-6.989 55.808 17.613 115.789 39.194 95.232 53.197 129.792 53.197 132.608 0 7.424-20.198 13.389-35.2 10.394-16.205-2.995-67.2-59.187-104.806-115.405-34.995-51.968-42.394-60.979-53.402-65.997-13.184-5.786-30.797-4.198-50.586 4.608-36.608 16.205-59.213 33.613-80.998 61.798-10.803 14.208-15.616 23.398-23.219 46.413-11.392 34.586-11.776 35.2-15.795 19.968-1.382-5.171-2.816-8.371-3.405-6.989-0.384 1.408 0.614 8.013 2.406 15.002 9.805 39.014 40.602 82.816 75.213 107.418 30.387 21.786 93.389 56.781 127.795 71.194 28.595 12.006 73.984 35.2 92.006 47.002 60.186 39.808 104.781 86.195 135.578 141.389 19.021 33.997 26.419 53.811 26.419 70.605 0 15.616-1.203 16.614-10.419 9.011-3.2-2.816-6.579-4.608-7.578-4.019-0.819 0.614-2.202 5.632-3.021 11.008-0.768 5.606-2.202 9.984-2.995 9.984-0.998 0-3.405-2.176-5.606-4.992-2.176-2.79-4.787-4.992-5.99-4.992-0.998 0-3.789 4.608-6.195 9.984-3.814 9.011-8.192 13.21-8.192 8.013 0-0.998-3.2-7.603-7.014-14.387l-6.784-12.416-5.222 11.418c-2.79 6.4-4.992 12.8-4.992 14.387 0 4.992-3.2 3.405-8.602-4.403-6.784-10.189-8.397-16-4.992-19.968 2.202-3.021 2.202-3.226-1.024-2.022-1.318 0.6-2.854 1.088-4.456 1.388l-0.127 0.020c-0.41 0-2.202 3.379-3.789 7.398-3.2 7.603-8.397 14.592-11.008 14.592-0.794 0-3.2-5.811-5.197-13.005-2.995-11.392-3.994-13.184-7.603-12.595-3.2 0.41-4.813 3.2-6.989 11.187-2.406 9.011-3.405 10.624-7.014 10.010-3.405-0.41-4.403-2.406-5.197-10.189-0.589-5.197-2.611-10.803-4.403-12.621-2.995-2.995-3.789-2.381-9.984 7.014-3.61 5.606-7.808 10.189-9.216 10.189-2.816 0-6.4-7.987-6.4-14.592 0-2.406-0.998-5.811-1.997-7.398-1.792-2.406-3.405-1.408-9.805 5.811-9.216 10.189-13.184 9.984-13.798-1.024-0.41-4.378-1.792-9.19-3.405-10.778-2.586-2.406-3.789-2.022-9.805 3.789-3.789 3.584-7.782 5.99-8.986 5.402-1.024-0.794-2.611-5.376-3.405-10.189-0.589-5.018-1.408-9.011-1.792-9.011-2.915 0.953-5.295 1.907-7.603 2.988l0.409-0.172c-15.821 6.4-15.821 6.4-15.821-3.61v-9.216l-25.19-11.981c-14.003-6.605-25.6-11.802-26.010-11.418-1.792 1.792 23.014 26.624 40.806 41.011 37.99 30.592 77.824 50.995 120.397 61.798 26.803 6.989 64.614 8.397 89.011 3.584 18.406-3.584 40.192-11.597 52.198-19.2 3.789-2.176 7.398-3.584 8.397-2.995 1.997 1.203 4.992 14.797 9.6 44.211 4.403 28.416 4.992 98.586 1.024 122.189-2.637 14.592-2.432 17.818 0.384 28.006 2.816 10.214 2.816 14.003 0.589 27.392-3.405 20.608-8.602 25.805-24.192 24.013zM929.792 888.218c0-3.994-0.819-9.011-1.613-11.008-1.203-3.379-1.997-2.995-5.606 2.816-3.994 6.195-3.994 6.989-0.998 13.184 4.019 8.397 8.397 5.811 8.192-4.992zM731.187 852.813c11.187-5.376 11.597-7.194 4.608-18.586-3.61-5.632-6.016-10.598-5.632-11.008 0.41-0.589 5.427-2.611 10.829-4.813 11.392-4.608 11.981-7.398 3.379-18.176-16.589-20.813-45.568-18.022-58.778 5.786-2.816 5.197-3.61 9.805-3.021 17.613 1.792 23.808 27.392 39.168 48.614 29.184zM224.973 700.621c-18.176-1.997-43.187-7.194-45.978-9.395-3.021-2.202-1.613-2.995 10.189-7.014 26.624-8.781 68.403-34.202 85.811-51.968 4.198-4.608 8.781-8.218 9.984-8.013 1.792 0 52.992 61.798 54.605 65.792 0.589 1.408-22.605 6.4-45.594 9.984-12.211 1.792-55.603 2.202-69.018 0.614zM690.995 396.186c-53.786-23.194-93.184-47.386-130.202-80-22.784-19.789-22.605-23.578 0.205-18.995 109.414 21.402 211.61 17.818 310.784-11.008 11.622-3.379 21.427-5.581 22.016-4.992 1.792 1.792-37.811 39.014-60.8 57.011-41.805 32.794-100.608 67.994-113.203 67.584-3.789-0.179-16.589-4.378-28.8-9.6z" />
<glyph unicode="&#xe918;" glyph-name="Freebet" d="M512 960c-281.6 0-512-230.4-512-512s230.4-512 512-512 512 230.4 512 512-230.4 512-512 512zM409.6 844.8c33.28 7.68 69.12 12.8 102.4 12.8s69.12-5.12 102.4-12.8v-107.52c-33.28 10.24-66.56 17.92-102.4 17.92s-71.68-5.12-102.4-17.92v107.52zM220.16 161.28c-48.64 48.64-84.48 110.080-102.4 176.64l92.16 53.76c12.8-71.68 51.2-133.12 102.4-176.64l-92.16-53.76zM209.92 504.32l-92.16 53.76c17.92 66.56 53.76 128 102.4 176.64l92.16-53.76c-51.2-43.52-89.6-107.52-102.4-176.64zM614.4 51.2c-33.28-7.68-69.12-12.8-102.4-12.8s-69.12 5.12-102.4 12.8v107.52c33.28-10.24 66.56-17.92 102.4-17.92s69.12 5.12 102.4 17.92v-107.52zM634.88 358.4c-5.12-10.24-10.24-17.92-17.92-25.6s-15.36-12.8-25.6-17.92c-10.24-5.12-20.48-5.12-30.72-5.12h-5.12v-92.16h-56.32v92.16h-89.6v64h151.040c5.12 0 7.68 0 10.24 5.12 2.56 2.56 5.12 7.68 5.12 12.8s0 7.68-5.12 7.68h-79.36c-10.24 0-23.040 0-33.28 5.12s-17.92 10.24-25.6 17.92c-7.68 7.68-12.8 15.36-17.92 25.6s-5.12 20.48-5.12 33.28 0 20.48 5.12 30.72c5.12 10.24 10.24 17.92 17.92 25.6s15.36 12.8 25.6 17.92c10.24 5.12 20.48 7.68 33.28 7.68h7.68v81.92h56.32v-81.92h69.12v-66.56h-133.12c-5.12 0-7.68 0-12.8-5.12-2.56-2.56-5.12-7.68-5.12-10.24s0-7.68 5.12-12.8 7.68-5.12 12.8-5.12h69.12c10.24 0 20.48 0 30.72-5.12 10.24-2.56 17.92-10.24 25.6-15.36 7.68-7.68 12.8-15.36 17.92-23.040 5.12-10.24 7.68-20.48 7.68-30.72s0-23.040-7.68-33.28zM803.84 734.72c48.64-48.64 84.48-110.080 102.4-176.64l-92.16-53.76c-12.8 71.68-51.2 133.12-102.4 176.64l92.16 53.76zM803.84 161.28l-92.16 53.76c51.2 43.52 89.6 107.52 102.4 176.64l92.16-53.76c-17.92-66.56-53.76-128-102.4-176.64z" />
<glyph unicode="&#xe919;" glyph-name="GouXuan" d="M976.051 657.075l-491.93-547.84c-9.411-10.43-22.975-16.958-38.064-16.958-10.69 0-20.615 3.276-28.826 8.88l0.177-0.114-355.072 239.565c-19.911 13.568-32.815 36.138-32.815 61.722 0 41.119 33.334 74.453 74.453 74.453 15.536 0 29.96-4.758 41.896-12.897l-0.257 0.166 289.024-195.021 434.586 483.968c13.222 15.009 32.485 24.428 53.947 24.428 39.644 0 71.782-32.138 71.782-71.782 0-18.756-7.194-35.832-18.972-48.619l0.046 0.050z" />
<glyph unicode="&#xe91a;" glyph-name="History" d="M773.12 335.36c-97.28 0-174.080-76.8-174.080-174.080s79.36-174.080 174.080-174.080 174.080 76.8 174.080 174.080-79.36 174.080-174.080 174.080zM911.36 143.36h-135.68s0 0 0 0h-5.12c-10.24 0-17.92 7.68-17.92 17.92v99.84c0 10.24 7.68 17.92 17.92 17.92h5.12c10.24 0 17.92-7.68 17.92-17.92v-79.36h117.76c10.24 0 17.92-7.68 17.92-17.92v-5.12c0-10.24-7.68-17.92-17.92-17.92zM798.72 908.8h-622.080c-53.76 0-99.84-43.52-99.84-99.84v-698.88c0-53.76 43.52-99.84 99.84-99.84h430.080c-35.84 38.4-56.32 92.16-56.32 148.48 0 122.88 99.84 225.28 225.28 225.28s89.6-12.8 125.44-38.4v463.36c0 53.76-43.52 99.84-99.84 99.84zM399.36 235.52h-174.080c-28.16 0-48.64 23.040-48.64 48.64s23.040 48.64 48.64 48.64h174.080c28.16 0 48.64-23.040 48.64-48.64s-23.040-48.64-48.64-48.64zM624.64 460.8h-399.36c-28.16 0-48.64 23.040-48.64 48.64s23.040 48.64 48.64 48.64h399.36c28.16 0 48.64-23.040 48.64-48.64s-23.040-48.64-48.64-48.64zM747.52 683.52h-522.24c-28.16 0-48.64 23.040-48.64 48.64s23.040 48.64 48.64 48.64h522.24c28.16 0 48.64-23.040 48.64-48.64s-23.040-48.64-48.64-48.64z" />
<glyph unicode="&#xe91b;" glyph-name="information" d="M303.872 64c45.773-77.517 130.15-125.082 221.952-125.082 91.75 0 176.128 47.565 221.901 125.082h-443.853zM568.909 903.117c0-0.845 0-1.664-0.051-2.509 155.904-18.304 277.376-135.808 284.211-280.115h0.282v-129.818c0.512-96.666 54.426-212.736 136.422-264.858 20.531-11.264 34.253-31.642 34.253-54.938 0-35.482-31.846-64.23-71.117-64.23h-881.792c-39.27 0-71.117 28.774-71.117 64.256 0 23.27 13.722 43.674 34.253 54.912 81.997 52.096 135.936 168.192 136.422 264.858v129.818h0.282c6.835 144.307 128.256 261.786 284.211 280.115-0.033 0.719-0.051 1.563-0.051 2.411 0 31.416 25.467 56.883 56.883 56.883 31.381 0 56.827-25.412 56.883-56.78v-0.005z" />
<glyph unicode="&#xe91c;" glyph-name="Install" d="M916.915 769.024l-65.894 79.616c-12.725 15.924-32.145 26.037-53.927 26.037-0.193 0-0.386-0.001-0.579-0.002h-568.93c-0.078 0-0.171 0-0.264 0-22.040 0-41.714-10.128-54.623-25.984l-0.101-0.129-65.382-79.539c-13.565-16.033-21.812-36.943-21.812-59.78 0-0.151 0-0.303 0.001-0.454v0.023-592.589c0.16-52.314 42.532-94.677 94.834-94.822h663.72c52.288 0.174 94.626 42.53 94.771 94.808v592.577c0 22.733-8.038 44.058-21.811 60.211zM512.077 185.421l-262.605 262.605h164.096v131.302h196.941v-131.328h164.096l-262.554-262.554zM183.808 776.269l32.794 65.638h590.746l32.794-65.638h-656.307z" />
<glyph unicode="&#xe91d;" glyph-name="language" d="M514.56 640l56.32-151.040h-110.080l53.76 151.040zM512 960c-281.6 0-512-230.4-512-512s230.4-512 512-512 512 230.4 512 512-230.4 512-512 512zM348.16 389.12c0 5.12 5.12 12.8 7.68 23.040l94.72 238.080c2.56 7.68 5.12 15.36 10.24 25.6 2.56 10.24 7.68 17.92 12.8 23.040s10.24 10.24 17.92 15.36c7.68 5.12 15.36 5.12 25.6 5.12s17.92 0 25.6-5.12c7.68-2.56 12.8-7.68 17.92-15.36 5.12-5.12 7.68-12.8 10.24-20.48s7.68-15.36 10.24-28.16l94.72-235.52c7.68-17.92 10.24-30.72 10.24-38.4s-2.56-15.36-10.24-23.040c-7.68-7.68-15.36-10.24-25.6-10.24s-10.24 0-15.36 2.56c-5.12 0-7.68 5.12-10.24 7.68s-5.12 10.24-10.24 15.36c-2.56 7.68-5.12 15.36-7.68 20.48l-17.92 46.080h-148.48l-17.92-46.080c-7.68-17.92-12.8-30.72-17.92-38.4-5.12-5.12-12.8-10.24-23.040-10.24s-17.92 2.56-25.6 10.24-10.24 15.36-10.24 23.040v15.36zM678.4 217.6h-332.8c-20.48 0-38.4 17.92-38.4 38.4s17.92 38.4 38.4 38.4h332.8c20.48 0 38.4-17.92 38.4-38.4s-17.92-38.4-38.4-38.4z" />
<glyph unicode="&#xe91e;" glyph-name="Lazer" d="M510.752 727.798v15.217c0 13.808-6.917 41.374 62.15 41.374 75.958 6.917 131.166 0 145 75.958v56.949h-75.907v-29.307q13.808-41.45-110.441-41.45-96.658 6.917-96.658-69.016v-49.7h75.881zM690.49 710.634h-356.248c-184.606 0.026-334.242-149.585-334.242-334.191v-60.28c0-184.606 149.637-334.242 334.242-334.242h356.248c184.606-0.026 334.242 149.611 334.242 334.216v60.28c0 184.606-149.637 334.242-334.242 334.242zM437.381 314.575h-101.807v-101.807c0-22.489-18.231-40.72-40.72-40.72s-40.72 18.231-40.72 40.72v0 101.807h-101.807c-0.002 0-0.004 0-0.006 0-22.482 0-40.707 18.225-40.707 40.707s18.225 40.707 40.707 40.707c0.002 0 0.004 0 0.006 0h101.807v101.807c0 22.489 18.231 40.72 40.72 40.72s40.72-18.231 40.72-40.72v0-101.807h101.807c0.002 0 0.004 0 0.006 0 22.482 0 40.707-18.225 40.707-40.707s-18.225-40.707-40.707-40.707c-0.002 0-0.004 0-0.006 0v0zM634.898 304.379c-0.332-0.008-0.724-0.012-1.116-0.012-28.127 0-50.929 22.802-50.929 50.929s22.802 50.929 50.929 50.929c0.411 0 0.82-0.005 1.228-0.015l-0.061 0.001c27.621-0.653 49.762-23.199 49.762-50.916 0-27.735-22.17-50.292-49.755-50.916l-0.058-0.001zM753.511 183.742c-28.127 0-50.929 22.802-50.929 50.929s22.802 50.929 50.929 50.929v0c28.127 0 50.929-22.802 50.929-50.929s-22.802-50.929-50.929-50.929v0zM753.511 426.527c-28.127 0-50.929 22.802-50.929 50.929s22.802 50.929 50.929 50.929v0c28.127 0 50.929-22.802 50.929-50.929s-22.802-50.929-50.929-50.929v0zM873.097 304.379c-28.109 0.015-50.891 22.805-50.891 50.916 0 28.12 22.796 50.916 50.916 50.916 0.009 0 0.018 0 0.027 0h-0.001c28.109-0.015 50.891-22.805 50.891-50.916 0-28.12-22.796-50.916-50.916-50.916-0.009 0-0.018 0-0.027 0h0.001z" />
<glyph unicode="&#xe91f;" glyph-name="Refresh" d="M687.985 193.736c-59.396-42.417-132.167-61.838-204.8-54.656-3.392 0.32-6.72 0.896-10.176 1.344-6.528 0.896-13.056 1.728-19.392 3.008-3.906 0.791-7.79 1.687-11.648 2.688-6.222 1.374-12.391 2.975-18.496 4.8-2.88 0.896-5.76 1.92-8.704 2.944-8.57 2.858-17.005 6.104-25.28 9.728-7.953 3.47-15.747 7.293-23.36 11.456l-1.024 0.512c-34.117 19.007-64.359 44.256-89.152 74.432-1.216 1.472-2.368 3.136-3.584 4.672-43.613 55.051-67.319 123.238-67.264 193.472h71.168c1.909-0.002 3.661 1.059 4.544 2.752 0.917 1.656 0.818 3.689-0.256 5.248l-119.488 181.632c-2.012 3.163-6.628 3.163-8.64 0l-119.552-181.632c-1.024-1.472-1.216-3.52-0.256-5.248s2.688-2.752 4.544-2.752h71.168c0-86.016 26.496-165.696 71.424-231.552 0.576-0.96 0.96-1.92 1.536-2.816 4.672-6.72 9.856-12.992 14.848-19.392 1.856-2.368 3.648-4.864 5.568-7.232 7.36-9.088 15.168-17.472 23.232-25.856l2.24-2.304c35.204-35.754 76.854-64.526 122.752-84.8l7.424-3.328c8.512-3.584 17.344-6.72 26.112-9.728 4.16-1.408 8.256-2.88 12.48-4.16 7.744-2.304 15.616-4.224 23.552-6.144 5.312-1.28 10.496-2.624 15.936-3.648 2.176-0.512 4.288-1.152 6.528-1.472 7.488-1.344 14.976-2.112 22.528-3.008l8.064-1.152c96.11-9.795 192.494 15.78 271.104 71.936 21.909 15.69 27.205 46.042 11.904 68.224-15.183 22.229-45.662 27.655-67.584 12.032zM915.761 448.136c0.065 82.41-24.714 162.927-71.104 231.040-0.704 1.152-1.152 2.304-1.792 3.264-5.626 7.877-11.518 15.562-17.664 23.040l-2.112 2.752c-40.315 49.721-91.983 89.032-150.656 114.624-1.612 0.72-3.212 1.467-4.8 2.24-9.343 3.803-18.798 7.325-28.352 10.56-3.648 1.152-7.040 2.432-10.624 3.456-8.369 2.511-16.822 4.731-25.344 6.656-4.672 1.088-9.408 2.304-14.208 3.264-2.368 0.448-4.544 1.152-6.912 1.6-6.4 1.152-12.8 1.6-19.2 2.432-4.352 0.576-8.768 1.28-13.184 1.728-10.642 0.946-21.317 1.48-32 1.6-1.92 0-3.84 0.32-5.824 0.32-82.989 0.141-163.939-25.709-231.488-73.92-21.97-15.674-27.299-46.077-11.968-68.288 15.225-22.174 45.67-27.566 67.584-11.968 59.525 42.401 132.389 61.817 205.12 54.656l8.128-1.152c7.36-0.832 14.592-1.92 21.696-3.328 3.136-0.576 6.272-1.408 9.344-2.112 6.976-1.6 14.016-3.328 20.8-5.376l6.4-2.24c7.808-2.56 15.424-5.312 22.976-8.512l2.368-1.088c45.12-19.648 84.736-49.92 115.648-87.808l0.576-0.768c45.198-55.594 69.817-125.087 69.696-196.736h-71.104c-1.907 0.021-3.667-1.020-4.568-2.701s-0.793-3.723 0.28-5.299l119.616-181.568c2.020-3.096 6.556-3.096 8.576 0l119.488 181.568c3.845 0.041 6.274 4.149 4.458 7.538s-6.582 3.641-8.746 0.462l-71.104 0.064z" />
<glyph unicode="&#xe920;" glyph-name="Live" d="M682.7 789.325c23.565 0 42.668-19.103 42.668-42.667v-179.2l222.42 155.734c6.52 4.57 15.040 5.129 22.103 1.451 7.060-3.678 11.484-10.983 11.476-18.944v-515.413c0.008-7.962-4.416-15.265-11.476-18.944-7.063-3.679-15.583-3.121-22.103 1.452l-222.42 155.732v-179.2c0-23.565-19.103-42.668-42.668-42.668h-597.333c-23.564 0-42.667 19.103-42.667 42.668v597.333c0 23.564 19.103 42.667 42.667 42.667h597.333zM315.768 583.288c-8.113 0.002-15.104-5.706-16.727-13.654l-0.34-3.37v-236.459c-0.002-11.948 11.955-20.198 23.124-15.956l3.116 1.536 185.812 118.272c9.272 5.932 10.588 18.957 2.688 26.624l-2.688 2.132-185.812 118.272c-2.752 1.706-5.934 2.594-9.172 2.56v0.043z" />
<glyph unicode="&#xe921;" glyph-name="minimize" d="M364.879 652.804h294.217q57.702 0 57.702-57.702v-294.217q0-57.676-57.702-57.676h-294.217q-57.676 0-57.676 57.676v294.217q0 57.702 57.676 57.702zM297.219 745.449v173.694c-0.015 22.568-18.313 40.857-40.883 40.857-0.027 0-0.054 0-0.081 0h0.004c-0.008 0-0.017 0-0.026 0-22.607 0-40.934-18.327-40.934-40.934 0-0.009 0-0.018 0-0.027v0.001-173.591h-174.078c-0.030 0-0.066 0-0.102 0-22.706 0-41.113-18.407-41.113-41.113 0-0.027 0-0.054 0-0.081v0.004c0-22.763 18.453-41.215 41.215-41.215v0h173.566c45.525 0 82.431 36.906 82.431 82.431v0zM1023.994 704.003c0 22.758-18.432 41.215-41.215 41.215h-173.566v173.566c0 22.763-18.453 41.215-41.215 41.215s-41.215-18.453-41.215-41.215v0-173.566c0-0.008 0-0.017 0-0.026 0-45.511 36.894-82.405 82.405-82.405 0.009 0 0.018 0 0.027 0h173.564c22.784 0 41.215 18.432 41.215 41.215zM1023.994 191.753c0 22.784-18.432 41.215-41.215 41.215h-173.566c-0.008 0-0.017 0-0.026 0-45.511 0-82.405-36.894-82.405-82.405 0-0.009 0-0.018 0-0.027v0.001-173.566c0-22.621 18.338-40.959 40.959-40.959s40.96 18.338 40.96 40.96v0 173.566h174.078c22.784 0 41.215 18.457 41.215 41.215zM297.219 150.794c0 0.008 0 0.017 0 0.026 0 45.511-36.894 82.405-82.405 82.405-0.009 0-0.018 0-0.027 0h-173.564c-22.763 0-41.215-18.453-41.215-41.215s18.453-41.215 41.215-41.215v0h173.566v-173.566c0-22.763 18.453-41.215 41.215-41.215s41.215 18.453 41.215 41.215v0 173.566z" />
<glyph unicode="&#xe922;" glyph-name="password-xs" d="M1016.32 473.6c-61.44 212.48-266.24 384-504.32 384s-445.44-171.52-504.32-384c-5.12-15.36-5.12-33.28 0-51.2 71.68-212.48 266.24-384 504.32-384s432.64 181.76 504.32 384c5.12 17.92 7.68 35.84 0 51.2zM512 217.6c-128 0-230.4 102.4-230.4 230.4s102.4 230.4 230.4 230.4 230.4-102.4 230.4-230.4-102.4-230.4-230.4-230.4zM384 448c0-70.692 57.308-128 128-128s128 57.308 128 128v0c0 70.692-57.308 128-128 128s-128-57.308-128-128v0z" />
<glyph unicode="&#xe923;" glyph-name="password-yc" d="M512 857.6c92.16 0 176.64-25.6 253.44-66.56l-153.6-135.68c-30.72 12.8-64 20.48-97.28 20.48-128 0-232.96-104.96-232.96-232.96s2.56-46.080 10.24-69.12l-176.64-153.6c-48.64 56.32-87.040 125.44-110.080 194.56-5.12 15.36-5.12 33.28 0 51.2 58.88 217.6 266.24 391.68 506.88 391.68zM1021.44 471.040c-25.6 87.040-74.24 166.4-140.8 230.4l69.12 61.44c10.24 10.24 12.8 25.6 0 35.84l-33.28 38.4c-10.24 10.24-25.6 12.8-35.84 0l-803.84-696.32c-10.24-10.24-12.8-25.6 0-35.84l33.28-38.4c10.24-10.24 25.6-12.8 35.84 0l74.24 66.56c81.92-58.88 181.76-94.72 291.84-94.72 240.64 0 435.2 184.32 506.88 386.56 5.12 17.92 7.68 35.84 0 53.76zM512 212.48c-51.2 0-99.84 17.92-140.8 46.080l81.92 71.68c17.92-10.24 38.4-15.36 58.88-15.36 71.68 0 128 58.88 128 128s0 28.16-7.68 40.96l81.92 71.68c17.92-33.28 28.16-71.68 28.16-112.64 0-128-104.96-232.96-232.96-232.96zM512 573.44h5.12l-133.12-115.2c7.68 64 61.44 115.2 128 115.2z" />
<glyph unicode="&#xe924;" glyph-name="Poker" d="M768 243.2l240.077 296.141c9.902 11.713 15.921 26.986 15.921 43.665 0 21.087-9.621 39.927-24.713 52.37l-0.116 0.093-231.168 201.984v-594.253zM0 891.725v-887.45c0-37.734 30.822-68.275 68.864-68.275h576.435c38.016 0 68.864 30.515 68.864 68.25v887.501c0 37.734-30.848 68.25-68.864 68.25h-576.435c-38.042 0-68.864-30.541-68.864-68.275zM149.299 678.246l-13.261-43.187h-41.574l65.766 188.39h45.005l64.538-188.416h-41.83l-13.44 43.213h-65.203zM182.323 790.938h-1.024c-0.473-5.835-1.571-11.234-3.239-16.376l0.141 0.504-20.557-65.869h47.872l-20.429 65.357c-1.434 4.812-2.43 10.405-2.78 16.172l-0.010 0.212zM556.211 270.387c-38.682-45.056-106.035-45.056-144.717 0l-2.099 2.406c13.145-49.388 38.332-91.765 72.268-125.312l0.026-0.026 1.101-2.099h-190.131l1.101 2.099c33.964 33.571 59.152 75.949 71.86 123.429l0.435 1.908-2.099-2.381c-38.682-45.056-106.086-45.056-144.768 0-39.731 46.515-39.731 117.043 0 163.584l168.576 213.606 168.499-213.606c39.68-46.541 39.654-117.069-0.051-163.584z" />
<glyph unicode="&#xe925;" glyph-name="Bonus" d="M533.128 960c-230.086 0-416.711-186.625-416.711-419.267s186.625-419.267 416.711-419.267 416.711 186.625 416.711 419.267-186.625 419.267-416.711 419.267zM786.222 579.080l-109.93-79.252c-7.67-7.67-12.783-17.896-10.226-28.122l40.904-127.825c2.557-10.226 0-23.009-10.226-28.122-7.67-7.67-20.452-7.67-30.678 0l-107.373 79.252c-7.67 7.67-20.452 7.67-30.678 0l-107.373-79.252c-7.67-7.67-20.452-7.67-30.678 0-7.67 7.67-12.783 17.896-10.226 28.122l40.904 127.825c2.557 10.226 0 23.009-10.226 28.122l-109.93 79.252c-7.67 7.67-12.783 17.896-10.226 28.122s12.783 17.896 23.009 17.896h135.495c10.226 0 20.452 7.67 23.009 17.896l40.904 127.825c2.557 10.226 12.783 17.896 23.009 17.896s20.452-7.67 23.009-17.896l40.904-127.825c2.557-10.226 12.783-17.896 23.009-17.896h135.495c10.226 0 20.452-7.67 23.009-17.896s0-23.009-10.226-28.122zM70.4 70.335l99.704 173.843c56.243-69.026 130.382-120.156 214.747-148.277l-86.921-153.39c-5.113-10.226-20.452-7.67-23.009 2.557l-28.122 120.156c0 7.67-7.67 10.226-15.339 10.226l-148.277-25.565c-10.226 0-17.896 10.226-12.783 17.896zM724.866-57.49l-92.034 148.277c86.921 20.452 163.616 63.913 224.973 127.825l94.591-150.834c5.113-10.226-2.557-20.452-12.783-17.896l-148.277 25.565c-7.67 0-12.783-2.557-15.339-10.226l-28.122-120.156c-2.557-10.226-17.896-12.783-23.009-2.557z" />
<glyph unicode="&#xe926;" glyph-name="Providers" d="M263.552 695.091l178.15 148.941c48.896 40.013 113.51 50.381 169.83 26.394l283.366-119.117c18.816-8.090 38.528-11.52 57.344-11.52h46.848c13.568 0 24.934-11.469 24.934-26.368v-382.771c0-14.925-11.52-27.546-24.96-27.546h-61.44c-8.32 0-17.664-3.405-23.91-9.216l-13.568-12.646c-3.072-3.405-8.32-2.278-11.52 1.126l-330.214 442.394c-8.32 11.52-22.912 13.773-34.432 6.81l-151.014-92.851c-15.575-9.713-34.486-15.472-54.742-15.472-16.036 0-31.229 3.609-44.811 10.060l0.634-0.271c-16.64 8.090-24.96 29.824-17.664 49.28-0.128 4.685 2.944 9.216 7.168 12.774zM30.234 304.23h53.094l37.504 50.406c33.28 44.723 93.696 50.406 134.4 13.773 14.767-13.926 25.677-31.789 31.056-51.912l0.176-0.773c32.256-9.216 57.344-36.608 66.662-72.243 22.912-7.962 43.776-24.141 55.168-48.128 21.272-3.966 39.564-14.652 53.040-29.733l0.080-0.091c17.032-20.238 27.381-46.591 27.381-75.362 0-20.225-5.114-39.256-14.12-55.869l0.307 0.62-5.248-10.368v-1.152c24.96-18.304 58.368-12.621 76.032 14.899 8.294 13.798 11.52 29.824 8.294 45.875v1.126h1.024l4.224-4.531c18.816-20.582 49.024-24.141 70.784-7.936 17.664 13.747 25.984 37.734 21.888 60.749v1.126h1.024l4.224-4.531c18.688-20.582 47.872-23.987 70.758-7.936 14.609 11.766 23.878 29.652 23.878 49.702 0 3.904-0.351 7.725-1.024 11.435l0.058-0.388v0.998h1.024l4.25-4.557c17.664-19.456 45.824-22.861 66.662-9.216 25.984 17.152 34.432 53.811 18.816 82.483-2.032 3.51-4.105 6.521-6.384 9.36l0.112-0.144-33.28 44.723-269.798 360.909c-3.072 3.405-7.296 4.531-11.52 2.278l-129.126-79.104c-41.728-25.267-90.624-29.798-135.424-11.494-24.934 9.216-43.75 30.976-53.094 57.344-7.296 27.571-4.224 57.395 9.344 81.382 3.072 6.81 1.024 14.899-5.248 18.304-2.048 1.152-4.224 1.152-6.272 1.152h-175.974c-13.568 0-24.96-11.52-24.96-26.419v-381.619c5.248-13.645 16.64-25.139 30.208-25.139zM217.728 331.776c-20.864 12.646-45.824 6.81-60.416-13.773l-36.454-49.254c-15.616-21.734-13.568-53.811 6.272-70.989h1.024l5.248-4.557c14.592-12.621 35.456-13.773 51.072-4.531 1.024 1.126 2.048 0 3.072-1.152v-2.253c-3.072-18.33 3.072-37.786 16.64-49.28l4.224-3.405c14.592-12.646 33.28-13.773 50.048-5.683 1.024 1.126 3.072 0 3.072-1.126v-1.126c-2.048-17.203 5.248-34.381 17.664-45.875l3.072-2.278c14.592-12.621 33.28-14.899 50.022-4.531 1.024 1.126 3.072 0 3.072-1.126v-1.152c2.048-12.646 8.32-24.141 17.664-32.077l2.048-1.152c20.864-17.152 50.048-13.773 65.664 9.216 1.131 2.205 2.542 4.090 4.217 5.702l0.007 0.006 6.272 12.621c11.52 21.734 8.32 48.128-8.32 65.306-13.568 13.773-33.28 17.178-51.072 9.216-1.024 0-1.024 0-2.048 1.152v1.152c1.024 27.546-18.816 51.533-43.776 53.811-6.272 0-12.544-1.152-18.816-3.43q-7.27-1.126-5.222 5.683c9.318 26.419-1.024 54.938-24.96 66.458-5.153 2.286-11.164 3.616-17.486 3.616-8.125 0-15.737-2.198-22.274-6.033l0.208 0.113q-5.248-1.126-4.224 4.557c13.696 21.453 6.4 52.403-15.488 66.176z" />
<glyph unicode="&#xe927;" glyph-name="quit" d="M452.606 949.341c33.385 0 61.851-28.466 61.851-61.851 0-0.031 0-0.067 0-0.103 0-34.032-27.588-61.62-61.62-61.62-0.081 0-0.162 0-0.243 0h-330.608v-753.403h330.621c33.385 0 61.851-28.363 61.851-61.748 0-33.462-28.466-61.825-61.851-61.825h-390.755c-34.031 0.514-61.467 28.031-61.85 62.045v876.655c0 0.053 0 0.116 0 0.18 0 34.060 27.611 61.671 61.671 61.671 0.063 0 0.126 0 0.189 0h390.745zM591.091 775.652c0 51.833 61.851 76.762 96.824 40.098l320.731-327.444c21.625-21.65 21.625-56.726 0-80.196l-320.629-325.497c-34.948-35.076-96.798-10.018-96.798 40.098v76.865c0.001 0.138 0.002 0.3 0.002 0.463 0 31.074-25.191 56.265-56.265 56.265-0.163 0-0.325-0.001-0.488-0.002h-262.263c-0.138-0.001-0.3-0.002-0.463-0.002-31.074 0-56.265 25.191-56.265 56.265 0 0.163 0.001 0.325 0.002 0.488v-0.025 272.204c0 31.668 25.058 56.701 56.726 56.701h262.288c0.123-0.001 0.267-0.002 0.413-0.002 31.103 0 56.316 25.214 56.316 56.316 0 0.19-0.001 0.379-0.003 0.569v-0.029l-0.128 76.865z" />
<glyph unicode="&#xe928;" glyph-name="Ranking" d="M912.689 804.557h-63.642c0 66.099-16.742 104.243-76.698 104.243h-526.438c-71.168 0-77.158-46.541-77.158-107.571h-55.45c-80.077 0-124.16-79.616-110.592-162.662 14.848-90.522 44.902-212.685 197.99-260.301 40.090-90.982 114.995-160.512 206.746-191.795 20.275-6.707 34.099-14.746 34.099-37.427 0-27.392-20.787-25.651-46.387-25.651h-18.125c-48.384-0.768-86.938-42.086-86.118-92.16-0.307-23.962 18.176-43.674 41.318-44.032h353.792c23.245 0.41 41.728 20.173 41.37 44.134 0.819 50.125-37.786 91.392-86.118 92.16h-18.125c-25.6 0-46.387-1.741-46.387 25.651 0 22.682 13.824 30.72 34.099 37.478 92.774 31.59 168.346 102.298 208.077 194.714 157.645 45.568 188.058 169.728 202.957 261.274 13.466 82.688-30.208 161.946-109.261 161.946zM78.692 653.466c-7.782 30.72 14.899 60.621 45.568 60.109h43.008v-178.176c0-19.507 1.536-39.014 4.454-58.368-54.455 40.839-90.112 104.188-93.067 175.975l-0.015 0.46zM663.754 585.882l-41.37-42.701c-6.399-6.718-10.335-15.831-10.335-25.864 0-2.167 0.184-4.291 0.536-6.358l-0.031 0.222 9.728-60.262c0.346-1.751 0.543-3.764 0.543-5.824 0-10.008-4.669-18.925-11.947-24.692l-0.065-0.050c-4.855-3.784-11.041-6.066-17.76-6.066-5.068 0-9.834 1.299-13.981 3.582l0.15-0.076-51.2 28.416c-4.567 2.617-10.039 4.16-15.872 4.16s-11.305-1.543-16.031-4.244l0.159 0.084-51.2-28.467c-3.963-2.167-8.681-3.441-13.697-3.441-6.735 0-12.933 2.298-17.854 6.152l0.063-0.048c-7.393 5.807-12.098 14.746-12.098 24.785 0 2.026 0.192 4.008 0.558 5.927l-0.031-0.197 9.933 60.314c0.324 1.85 0.508 3.98 0.508 6.153 0 10.028-3.938 19.136-10.353 25.862l0.014-0.015-41.37 42.701c-5.586 5.821-9.026 13.74-9.026 22.462 0 3.423 0.53 6.722 1.512 9.819l-0.063-0.23c3.374 11.1 12.529 19.435 23.872 21.576l0.192 0.030 56.934 8.704c11.545 1.943 20.999 9.416 25.665 19.55l0.088 0.213 25.549 54.835c4.629 10.344 14.783 17.445 26.609 17.561h0.015c11.418 0 21.811-6.861 26.624-17.562l25.6-54.784c4.733-10.356 14.168-17.845 25.499-19.786l0.204-0.029 57.19-8.806c11.264-1.946 20.582-10.24 24.064-21.555 0.924-2.872 1.456-6.176 1.456-9.605 0-8.693-3.423-16.587-8.994-22.407l0.011 0.012zM946.788 657.51q-1.126-120.32-100.352-181.248c2.835 17.704 4.454 38.114 4.454 58.903 0 0.064 0 0.128 0 0.192v-0.010 182.016h50.79c30.464 0.512 52.941-29.338 45.056-59.904z" />
<glyph unicode="&#xe929;" glyph-name="Recommend" d="M691.009 731.199c13.152-24.367 35.964-42.087 63.17-48.15l0.633-0.118 192.919-40.539c33.527-7.038 60.783-32.349 71.353-66.234 2.955-9.097 4.659-19.565 4.659-30.431 0-25.634-9.483-49.053-25.133-66.94l0.101 0.118-133.186-150.921c-15.534-17.714-25.011-41.078-25.011-66.654 0-4.027 0.235-7.999 0.692-11.904l-0.045 0.474 22.599-203.643c3.916-35.369-10.749-70.201-38.415-91.136-15.244-11.757-34.615-18.844-55.642-18.844-14.344 0-27.919 3.298-40.005 9.178l0.544-0.239-178.971 85.301c-11.527 5.645-25.084 8.946-39.413 8.946s-27.886-3.301-39.954-9.184l0.541 0.238-178.971-85.301c-11.543-5.641-25.117-8.939-39.462-8.939-21.026 0-40.398 7.087-55.855 19.002l0.214-0.158c-27.64 20.935-42.331 55.767-38.415 91.136l22.599 203.643c0.412 3.43 0.647 7.402 0.647 11.429 0 25.577-9.477 48.94-25.111 66.77l0.099-0.116-133.211 150.921c-15.537 17.766-25.013 41.176-25.013 66.8 0 10.874 1.706 21.349 4.866 31.173l-0.2-0.72c10.57 33.859 37.852 59.196 71.353 66.234l192.919 40.539c27.839 6.181 50.651 23.901 63.554 47.765l0.249 0.503 96.639 178.562c16.738 31.044 48.294 50.239 82.512 50.239 34.192 0 65.723-19.195 82.512-50.213l96.639-178.587zM180.302 889.619v-65.774c0-22.727 17.659-41.128 39.49-41.128 21.78 0 39.464 18.401 39.464 41.102v65.799c0 22.701-17.659 41.128-39.464 41.128s-39.49-18.427-39.49-41.128zM748.669 889.619v-65.774c0-22.727 17.659-41.128 39.464-41.128s39.49 18.401 39.49 41.102v65.799c0 22.701-17.659 41.128-39.49 41.128-21.78 0-39.464-18.427-39.464-41.128zM351.749 383.699c27.205-65.748 89.14-110.766 160.109-110.766s132.904 45.044 160.109 110.766c11.159 26.975-11.082 53.668-39.311 53.668h-241.597c-28.229 0-50.469-26.693-39.311-53.668z" />
<glyph unicode="&#xe92a;" glyph-name="right-arrow" d="M380.334 905.027l415.073-415.175c19.99-19.995 19.989-52.408-0.003-72.402l-426.865-426.902c-30.126-30.129-78.97-30.138-109.108-0.020-30.144 30.125-30.159 78.982-0.033 109.125l336.309 336.494c9.993 9.998 9.991 26.203-0.005 36.199l-324.031 324.031c-30.002 30.002-30.005 78.644-0.006 108.65 30.006 30.013 78.663 30.013 108.669-0.001z" />
<glyph unicode="&#xe92b;" glyph-name="Roulette" d="M124.493 476.851c6.76 86.373 41.396 163.571 94.805 223.726l-0.341-0.391-89.088 89.088c-75.162-84.198-123.162-192.768-129.869-312.422h124.493zM260.045 740.762c60.261 50.917 137.435 83.552 222.043 88.527l1.035 0.049v130.662c-119.629-6.656-228.224-54.682-312.422-129.894l89.344-89.344zM218.982 195.789c-53.168 59.709-87.83 136.939-94.384 222.043l-0.080 1.292h-124.518c6.656-119.629 54.682-228.198 129.894-312.422l89.088 89.088zM540.902 960v-131.43c83.909-8.166 158.56-42.466 217.033-94.541l-0.381 0.333 95.744 95.744c-84.173 75.213-192.998 123.213-312.371 129.894zM886.17 419.123c-6.432-83.204-38.737-157.826-88.78-216.955l0.46 0.558 96-96c75.213 84.198 123.238 192.768 129.894 312.397h-137.574zM797.85 693.248c49.583-58.572 81.888-133.194 88.239-215.094l0.081-1.303h137.574c-6.656 119.629-54.682 228.224-129.894 312.422l-96-96zM757.555 161.638c-58.092-51.742-132.743-86.041-215.090-94.085l-1.562-0.123v-131.43c119.629 6.656 228.198 54.682 312.422 129.894l-95.744 95.744zM483.123 66.944c-85.644 5.024-162.817 37.659-223.643 89.040l0.564-0.464-89.344-89.344c84.198-75.213 192.768-123.238 312.422-129.894v130.662zM505.421 772.864c-178.662 0-324.71-146.074-324.71-324.736 0-178.688 146.048-324.736 324.71-324.736 178.688 0 324.736 146.048 324.736 324.736 0 178.662-146.048 324.71-324.736 324.71zM690.509 310.272l-40.806-40.832-92.16 92.16h-91.392l-92.16-92.16-40.806 40.832 92.16 92.16v91.392l-92.16 92.16 40.806 40.806 92.16-92.16h91.392l92.16 92.16 40.806-40.832-92.16-92.16v-91.392l92.16-92.16zM485.453 474.573h52.89q0 0 0 0v-52.89q0 0 0 0h-52.89q0 0 0 0v52.89q0 0 0 0z" />
<glyph unicode="&#xe92c;" glyph-name="select" d="M835.84 216.883c56.643 76.24 90.676 172.217 90.676 276.143 0 0.316 0 0.633-0.001 0.949v-0.049c0 257.434-207.411 466.074-463.258 466.074s-463.258-208.666-463.258-466.074c0-257.382 207.411-466.022 463.258-466.022 110.95 0 212.787 39.219 292.557 104.678l183.962-196.582 84.224 79.795-188.16 201.088zM708.915 741.094q101.76-102.374 101.76-247.168 0-144.768-101.76-247.168-101.76-102.374-245.683-102.374t-245.683 102.4q-101.76 102.349-101.76 247.142t101.811 247.194q101.76 102.4 245.683 102.4t245.683-102.4z" />
<glyph unicode="&#xe92d;" glyph-name="set" d="M76.8 934.4h870.4q76.8 0 76.8-76.8v0q0-76.8-76.8-76.8h-870.4q-76.8 0-76.8 76.8v0q0 76.8 76.8 76.8zM0 448c0 42.415 34.385 76.8 76.8 76.8v0h588.8v-153.6h-588.8c-42.415 0-76.8 34.385-76.8 76.8v0zM76.8 115.2h870.4q76.8 0 76.8-76.8v0q0-76.8-76.8-76.8h-870.4q-76.8 0-76.8 76.8v0q0 76.8 76.8 76.8zM835.584 617.805c-4.405 3.689-10.133 5.93-16.384 5.93-14.135 0-25.595-11.456-25.6-25.59v-274.689c0.005-14.134 11.465-25.59 25.6-25.59 6.251 0 11.979 2.24 16.424 5.962l-0.040-0.033 164.813 137.344c5.642 4.729 9.204 11.779 9.204 19.661s-3.562 14.932-9.165 19.628l-0.040 0.032-164.813 137.344z" />
<glyph unicode="&#xe92e;" glyph-name="side-collect" d="M492.416 822.195c-120.218 123.571-306.355 113.69-415.744-22.093-102.221-126.822-102.221-320.742 0.051-447.565 6.17-7.68 12.698-15.027 19.482-22.016l316.749-325.632c56.166-57.728 141.952-57.728 198.093 0l316.749 325.632c6.81 6.989 13.312 14.336 19.507 22.016 46.157 57.242 73.165 130.867 76.39 208.205 3.661 88.064-23.808 174.157-76.339 239.36-109.389 135.782-295.526 145.664-415.744 22.093l-19.61-20.147-19.584 20.147z" />
<glyph unicode="&#xe92f;" glyph-name="side-Recently" d="M512-64c282.778 0 512 229.222 512 512s-229.222 512-512 512-512-229.222-512-512 229.222-512 512-512zM455.091 442.266v295.834c0 28.277 22.923 51.2 51.2 51.2v0h11.392c28.277 0 51.2-22.923 51.2-51.2v0-233.216h347.008c28.277 0 51.2-22.923 51.2-51.2v0-11.366c0-28.277-22.923-51.2-51.2-51.2v0h-396.083c-0.623-0.029-1.365-0.048-2.112-0.051h-11.405c-28.277 0-51.2 22.923-51.2 51.2v0z" />
<glyph unicode="&#xe930;" glyph-name="Sports" d="M766.785 592.988c4.863-30.2 5.887-50.163 5.887-50.419v-0.512c2.047-2.047 4.863-3.839 8.446-5.631 47.86-23.034 87.53-56.562 119.522-99.047 0-0.256 0.512-0.512 0.512-1.024 14.844 8.958 61.681 39.158 92.905 75.757 2.303 23.034 0 40.694-2.047 63.472l-1.024 4.607c-33.272 97.256-87.786 155.353-127.712 187.345-29.433 23.546-55.282 36.343-69.103 42.229-25.338-17.66-50.675-35.063-76.269-52.723 0-0.256 0.256-0.512 0.512-0.768 20.475-43.765 33.528-89.066 41.462-126.944 3.327-12.029 5.631-24.314 6.91-36.599v0.256zM706.384 755.251c-34.852 26.017-75.93 45.967-120.444 57.321l-2.405 0.52c-16.124 4.095-32.504 6.654-49.14 8.958-15.356 0-26.617-0.768-30.712-1.024-12.285-8.958-112.868-81.388-169.174-137.95 3.839-18.171 30.456-123.873 49.14-196.559 19.195-7.422 134.622-51.699 227.271-74.989 0.256 0 0.768 0.512 1.024 0.512 0.256 0.512 0.512 0.768 1.024 1.28 40.95 48.372 88.554 89.322 141.789 123.617 2.815 3.327 5.119 5.631 6.398 7.166-1.28 16.124-9.726 115.683-52.979 207.308-0.512 1.28-1.28 2.559-1.792 3.583v0.256zM150.184 660.811c19.963 6.91 39.158 14.588 58.865 19.963 37.111 9.982 74.989 7.934 112.612 4.095h1.024v2.559l1.536 1.792c60.145 61.169 173.013 141.533 174.036 142.3l1.28 0.768h0.768l-19.963 79.596c-0.256 1.536-1.024 2.815-1.536 4.095-10.749 3.583-34.807 9.982-69.615 10.237-32.504 0.512-79.852-4.607-137.95-26.105-21.243-11.261-41.462-24.058-60.913-38.134-18.171-24.57-36.343-49.14-54.002-74.221-2.559-3.839-4.863-7.934-6.654-12.285h1.28q-14.076-72.174-0.768-114.915v0.256zM654.25 213.435l-0.768 3.071c-14.844 61.169-29.177 122.081-44.021 183.25v0.512c-101.607 25.594-231.366 76.269-232.646 76.781q-1.28-1.536-2.047-2.303c-46.836-44.277-93.161-88.81-140.509-132.575-0.512-0.512-1.28-1.024-1.792-1.792-0.512-15.868-1.792-127.712 52.211-208.588 0.256 0 0.768-0.256 1.024-0.512 40.438-27.641 82.923-50.931 131.551-59.889 22.266-4.095 44.789-5.887 67.311-8.446 66.799 35.575 156.889 135.646 169.942 150.234l-0.256 0.256zM619.443-25.354c54.514 5.631 136.158 24.314 215.498 81.644l0.512-0.768c9.214 14.076 18.427 28.409 28.153 41.974 9.726 36.087-17.404 101.351-27.641 124.385h-0.768c-55.026-19.451-111.332-24.826-168.918-17.148-1.28 0-2.559 0.256-3.839 0.512-15.612-17.66-100.583-111.588-168.662-149.723 10.237-26.873 20.475-53.491 31.224-80.108 13.565-1.792 48.628-5.375 94.696-0.512l-0.256-0.256zM12.798 390.030c9.726 16.124 38.39 57.842 75.757 69.103 0.512 2.815 0.512 5.887 1.024 8.702 7.166 54.002 18.683 106.981 40.438 157.145 1.024 2.303 1.792 4.351 2.815 6.654 3.327 6.654 6.654 13.309 8.702 20.219-14.332 37.879-6.142 98.279-2.815 118.754-11.773-4.351-23.29-8.702-34.551-13.053-64.999-84.553-104.167-191.908-104.167-308.412 0-0.357 0-0.713 0.001-1.070v0.055c0-13.309 0.512-26.617 1.536-39.926 3.839-6.142 7.678-12.029 11.261-18.171zM620.185-36.871c-17.404-1.792-33.272-2.559-47.092-2.559-29.177 0-48.628 2.815-54.514 3.839-26.873-11.517-54.514-19.451-83.435-22.522 25.082-3.839 50.931-5.887 77.037-5.887 89.834 0 174.036 23.034 247.234 63.728-52.723-23.29-102.118-33.016-139.229-36.855v0.256zM259.29 3.567c-16.38 18.939-31.992 38.646-48.116 58.097-2.303 2.815-5.631 4.863-7.678 6.654 1.792 1.024 5.375 2.303 7.934 4.607 20.475 18.427 40.694 37.111 60.913 55.794q0 0.256 0.256 0.256c-28.665 44.789-41.206 97-46.836 134.622-5.119 34.807-5.375 62.704-5.119 73.966-0.768 0.512-1.536 1.28-2.303 1.792-37.367 25.082-73.71 51.443-104.422 84.459-7.422 7.934-14.332 16.124-21.499 24.57-41.206-11.773-72.942-69.359-73.198-69.871l-0.768 0.512c-1.536-16.124-3.327-31.992-4.863-48.116 33.016-141.021 124.385-259.519 247.234-328.878-0.494 0.442-0.918 0.947-1.263 1.506l-0.017 0.029h-0.256zM410.343 937.478c44.277-0.512 71.406-10.237 78.060-13.053 50.931 20.219 103.142 20.731 155.609 5.631 64.24-18.683 118.498-52.723 156.889-109.029 0.512-0.768 1.024-1.536 1.28-2.303 14.844-6.654 39.67-19.707 68.079-42.229 39.67-31.736 93.417-88.554 127.968-182.482 1.28-0.256 2.815-0.768 4.607-1.024-62.448 212.427-258.751 367.012-490.885 367.012-58.609 0-115.171-9.982-167.638-28.153 25.85 4.607 48.116 5.887 66.031 5.631zM1023.719 445.338c-4.351 10.493-8.446 20.731-13.053 31.224-3.583 7.934-7.422 15.612-11.517 23.802-35.319-39.414-84.971-69.615-94.952-75.501-4.607-67.567-27.129-130.015-58.865-189.137-0.512-1.28-1.28-2.303-1.792-3.583 6.91-14.844 34.551-75.757 33.272-120.034 10.493 4.095 20.731 7.934 30.968 11.773 0-0.256-0.256-0.512-0.512-0.768 72.132 86.928 116.039 199.537 116.451 322.39v0.089-0.256z" />
<glyph unicode="&#xe931;" glyph-name="tempo" d="M991.002 759.45c9.842-10.14 15.909-23.992 15.909-39.26 0-15.942-6.614-30.339-17.249-40.596l-0.017-0.016c-10.177-9.82-24.049-15.871-39.334-15.871s-29.157 6.051-39.351 15.887l0.017-0.016-79.872 79.872c-10.659 10.275-17.279 24.677-17.279 40.625 0 15.262 6.062 29.108 15.91 39.261l-0.014-0.014c10.275 10.659 24.677 17.279 40.625 17.279 15.262 0 29.108-6.062 39.261-15.91l1.368-1.368q0 0.179 80.026-79.872zM39.194 759.45l79.872 79.872c10.275 10.659 24.677 17.279 40.625 17.279 15.262 0 29.108-6.062 39.261-15.91l-0.014 0.014c10.616-10.297 17.205-24.694 17.205-40.629 0-15.247-6.032-29.086-15.839-39.26l-81.237-81.237c-21.658-22.528-57.498-23.040-79.872-1.357-10.608 10.295-17.191 24.687-17.191 40.617 0 15.254 6.037 29.097 15.851 39.272l-0.016-0.017c0.333 0.512 0.845 0.845 1.357 1.357zM508.186 31.053c-218.624 0-395.93 177.331-395.93 395.955s177.306 395.776 395.93 395.776 395.955-177.331 395.955-395.955c0-218.624-177.331-395.776-395.955-395.776zM564.864 483.482v113.152c0 31.232-25.267 56.678-56.678 56.678-31.232 0-56.653-25.267-56.653-56.678v-169.626c0-31.232 25.267-56.678 56.653-56.678h169.651c31.232 0 56.653 25.267 56.653 56.678 0 31.232-25.242 56.653-56.653 56.653h-112.973v-0.179z" />
<glyph unicode="&#xe932;" glyph-name="top-arrow" d="M54.973 303.934l415.175 415.073c19.995 19.99 52.408 19.989 72.402-0.003l426.902-426.865c30.129-30.126 30.138-78.97 0.020-109.108-30.125-30.144-78.982-30.159-109.125-0.033l-336.494 336.309c-9.998 9.993-26.203 9.991-36.199-0.005l-324.031-324.031c-30.002-30.002-78.644-30.005-108.65-0.006-30.013 30.006-30.013 78.663 0.001 108.669z" />
<glyph unicode="&#xe933;" glyph-name="Transaction" d="M901.791 960h-785.468c-21.755 0-39.414-17.66-39.414-39.414v-945.172c0-21.755 17.66-39.414 39.414-39.414h785.724c21.755 0 39.414 17.66 39.414 39.414v945.172c0 21.755-17.66 39.414-39.414 39.414h-0.256zM592.108 491.893c-4.095 4.863-11.005 9.726-20.987 14.076-9.982 4.607-24.57 9.47-43.765 14.844-26.105 7.678-47.348 15.356-64.24 22.778-16.636 7.422-31.48 19.195-44.533 35.319s-19.451 37.111-19.451 63.728c0 28.665 9.47 53.747 28.665 74.989s44.021 35.575 74.733 42.485l-3.583 52.723h91.113l-3.583-52.723c45.557-11.261 80.108-41.718 103.398-91.625l-76.525-37.111c-8.19 18.171-17.66 31.224-28.409 39.158-10.749 7.678-24.314 11.517-40.438 11.517-14.844 0-27.129-3.327-36.855-9.982s-14.332-14.844-14.332-25.082c0-8.19 1.536-14.588 4.863-19.451s9.47-9.47 18.683-13.821c9.214-4.351 23.546-9.214 42.741-14.588 26.361-7.166 48.116-14.332 65.52-21.499s33.016-18.939 46.58-35.063c13.565-16.124 20.475-37.367 20.475-64.24 0-30.456-9.47-56.306-28.665-77.293s-44.789-35.319-76.781-42.229l3.071-52.723h-91.113l3.071 52.723c-26.105 6.142-48.628 17.404-67.823 34.295-18.922 16.425-33.888 36.893-43.622 60.098l-0.399 1.071 77.037 36.855c6.142-17.66 15.868-30.968 29.433-40.182s29.177-13.821 46.58-13.821c17.404 0 30.2 3.327 40.182 9.982s14.844 15.356 14.844 26.617c0 7.422-2.047 13.565-6.142 18.427l0.256-0.256zM763.073 88.026l-77.549-80.876c-1.86-1.896-4.448-3.072-7.312-3.072-0.039 0-0.078 0-0.116 0.001h0.006c-3.071 0-5.887 1.28-7.678 3.583-1.633 1.851-2.629 4.297-2.629 6.976 0 0.428 0.025 0.849 0.075 1.264l-0.005-0.050 5.119 39.926h-315.569c-13.711 0-24.826 11.115-24.826 24.826v0c0 13.565 11.261 24.826 24.826 24.826h398.236c4.095 0 7.934-2.559 9.47-6.398s0.768-8.19-2.047-11.261v0.256zM741.063 155.081h-396.445c-4.607 0-8.702 2.559-10.749 6.91-0.607 1.346-0.96 2.917-0.96 4.571 0 3.106 1.246 5.92 3.265 7.971l-0.001-0.001 72.942 76.013c2.094 2.203 5.046 3.574 8.318 3.574 6.332 0 11.466-5.133 11.466-11.466 0-0.466-0.028-0.925-0.082-1.376l0.005 0.054-4.607-36.343h316.337c13.821 0 24.826-11.261 24.826-24.826s-11.261-24.826-24.826-24.826l0.512-0.256z" />
<glyph unicode="&#xe934;" glyph-name="VIP" d="M583.084 844.106c0-40.42-32.767-73.187-73.187-73.187s-73.187 32.767-73.187 73.187v0c1.317 39.407 33.58 70.853 73.187 70.853s71.869-31.445 73.183-70.732l0.003-0.12zM48.039 553.409c-11.376 39.072 16.397 54.189 47.988 32.795q7.584-3.843 209.631-171.507 174.223 312.679 179.296 321.519c5.047 8.814 30.284 32.769 50.473 1.23q20.215-31.514 180.628-322.748 154.034 129.873 210.861 173.967c16.397 15.142 53.036 12.606 46.733-35.306q0-5.047-122.494-407.58-6.328-22.7-24.033-22.726h-632.609q-12.631 0-23.981 22.675c-11.35 22.7-111.119 368.61-122.494 407.682zM100.973 654.792c0-27.883-22.603-50.486-50.486-50.486s-50.486 22.603-50.486 50.486v0c0 27.883 22.603 50.486 50.486 50.486s50.486-22.603 50.486-50.486v0zM1024.842 654.792c0-27.89-22.609-50.499-50.499-50.499s-50.499 22.609-50.499 50.499v0c0 27.89 22.609 50.499 50.499 50.499s50.499-22.609 50.499-50.499v0zM170.892 9.602v36.484c0 11.145 9.070 20.164 20.215 20.164h638.63c11.145 0 20.164-9.019 20.164-20.164v-36.484c0-11.145-9.019-20.215-20.164-20.215h-638.63c-11.179 0-20.241 9.062-20.241 20.241v0z" />
<glyph unicode="&#xe935;" glyph-name="Withdraw" d="M989.353 949.376h-954.113c-19.342 0-35.239-15.897-35.239-35.239v-338.616c0-19.607 15.897-35.239 35.239-35.239h156.855v45.308c-16.422 4.66-28.264 19.482-28.35 37.084v79.762c0 21.197 17.222 38.419 38.419 38.419h636.959c21.197 0 38.419-17.222 38.419-38.419v-79.752c0-17.752-11.923-32.59-28.35-37.094v-45.308h140.163c19.607 0 35.239 15.897 35.239 35.239v338.616c0 19.607-15.897 35.239-35.239 35.239zM793.284 702.7h-545.283c-21.197 0-38.419-17.222-38.419-38.419v-688.096c0-21.197 17.222-38.419 38.419-38.419h545.283c21.197 0 38.419 17.222 38.419 38.419v687.831c0 21.197-17.222 38.419-38.419 38.419v0.265zM627.95 198.751c-14.838-16.427-34.709-27.291-59.88-32.855l2.385-41.068h-71.009l2.385 41.068c-20.137 4.769-37.889 13.513-52.992 26.496s-26.496 28.88-34.445 47.427l59.88 28.88c4.769-13.778 12.453-24.111 22.786-31.265 10.598-7.154 22.521-10.863 36.299-10.863s23.581 2.65 31.265 7.684c7.684 5.034 11.658 11.923 11.658 20.667 0.012 0.265 0.019 0.577 0.019 0.889 0 5.109-1.807 9.795-4.817 13.455l0.029-0.037c-3.179 3.709-8.744 7.419-16.427 11.128-7.684 3.444-19.077 7.419-34.18 11.658-20.137 6.094-36.829 11.923-49.812 17.752s-24.641 14.838-34.709 27.556c-10.068 12.453-15.103 28.88-15.103 49.547 0 22.256 7.419 41.863 22.256 58.291 14.838 16.692 34.18 27.556 58.291 33.12l-2.65 41.068h71.009l-2.65-41.068c35.504-8.744 62.265-32.59 80.547-71.274l-59.616-28.88c-6.359 14.308-13.778 24.376-21.992 30.47-8.479 6.094-18.812 9.009-31.53 9.009-11.658 0-21.197-2.65-28.615-7.684s-11.128-11.658-11.128-19.607c0-6.359 1.325-11.393 3.709-15.103s7.419-7.419 14.573-10.863c7.154-3.444 18.282-7.154 33.385-11.393 20.402-5.564 37.624-11.128 51.137-16.692s25.701-14.838 36.299-27.291c10.598-12.453 15.897-29.145 15.897-49.812 0-23.581-7.419-43.718-22.256-60.145v-0.265z" />
<glyph unicode="&#xe936;" glyph-name="down-arrow" d="M54.973 592.066l415.175-415.073c19.995-19.99 52.408-19.989 72.402 0.003l426.902 426.865c30.129 30.126 30.138 78.97 0.020 109.108-30.125 30.144-78.982 30.159-109.125 0.033l-336.494-336.309c-9.998-9.993-26.203-9.991-36.199 0.005l-324.031 324.031c-30.002 30.002-78.644 30.005-108.65 0.006-30.013-30.006-30.013-78.663 0.001-108.669z" />
<glyph unicode="&#xe937;" glyph-name="left-arrow" d="M656.066 905.027l-415.073-415.175c-19.99-19.995-19.989-52.408 0.003-72.402l426.865-426.902c30.126-30.129 78.97-30.138 109.108-0.020 30.144 30.125 30.159 78.982 0.033 109.125l-336.309 336.494c-9.993 9.998-9.991 26.203 0.005 36.199l324.031 324.031c30.002 30.002 30.005 78.644 0.006 108.65-30.006 30.013-78.663 30.013-108.669-0.001z" />
<glyph unicode="&#xe938;" glyph-name="rule" d="M512 908.8c254.493 0 460.8-206.307 460.8-460.8s-206.307-460.8-460.8-460.8c-254.493 0-460.8 206.307-460.8 460.8s206.307 460.8 460.8 460.8zM576.249 566.294h-4.871c-43.842-17.115-109.67-9.743-153.512-26.792v-12.178c63.327 0 46.277-39.036 34.099-85.314-14.614-56.020-43.908-129.024-48.713-180.37-4.937-51.215 26.792-70.634 58.456-70.634 43.908 0 80.443 43.842 99.928 68.264 4.871 4.871 41.472 43.842 19.485 48.713-19.485 4.608-38.971-73.070-75.505-58.522-2.436 0-2.436 0-4.871 2.436 9.677 109.67 53.584 207.36 75.505 314.397zM556.763 727.113c-29.63 0-53.65-24.020-53.65-53.65s24.020-53.65 53.65-53.65c29.63 0 53.65 24.020 53.65 53.65-0.25 29.526-24.124 53.4-53.65 53.65z" />
</font>
</defs>
</svg>
